<?xml version="1.0" standalone="no"?>
<!DOCTYPE svg PUBLIC "-//W3C//DTD SVG 1.1//EN" "http://www.w3.org/Graphics/SVG/1.1/DTD/svg11.dtd" >
<svg xmlns="http://www.w3.org/2000/svg" xmlns:xlink="http://www.w3.org/1999/xlink" version="1.1">
<metadata></metadata>
<defs>
<font id="novaregular" horiz-adv-x="1024" >
<font-face units-per-em="2048" ascent="1638" descent="-410" />
<missing-glyph horiz-adv-x="512" />
<glyph horiz-adv-x="0" />
<glyph unicode="&#xd;" horiz-adv-x="512" />
<glyph unicode=" "  horiz-adv-x="512" />
<glyph unicode="&#x09;" horiz-adv-x="512" />
<glyph unicode="&#xa0;" horiz-adv-x="512" />
<glyph unicode="!" horiz-adv-x="653" d="M242 0v170h170v-170h-170zM242 1421h168l-15 -1059h-139z" />
<glyph unicode="&#x22;" d="M254 1421h160l-17 -686h-127zM606 1421h160l-18 -686h-125z" />
<glyph unicode="#" horiz-adv-x="1705" d="M115 309q0 16 10 28.5t31 12.5h372l90 328h-462q-41 0 -41 39q0 18 10 30.5t31 12.5h485l170 629q4 12 15.5 22t27.5 10q18 0 31.5 -16t5.5 -39l-164 -606h381l172 629q4 12 15.5 22t27.5 10t29.5 -17.5t7.5 -37.5l-166 -606h354q16 0 28.5 -9.5t12.5 -33.5 q0 -39 -41 -39h-377l-88 -328h465q25 0 33 -15.5t8 -25.5q0 -41 -41 -41h-487l-172 -637q-10 -29 -37 -28q-18 0 -32.5 16t-10.5 33l168 616h-385l-172 -637q-10 -29 -37 -28q-18 0 -32.5 16t-10.5 33l170 616h-354q-23 0 -32 14.5t-9 26.5zM614 350h383l88 328h-383z" />
<glyph unicode="$" d="M90 131l27 139q88 -74 155 -106q84 -41 181 -41v536q-150 33 -245 135.5t-95 249.5q0 141 94 252t246 131v109h122v-106q92 0 162 -29q49 -20 142 -84l-27 -133q-59 49 -127 78.5t-150 37.5v-479q150 -35 244 -147t94 -266q0 -158 -99 -275t-239 -139v-109h-122v107 q-106 10 -199.5 47t-163.5 92zM264 1067q1 -160 189 -223v454q-86 -20 -137.5 -83.5t-51.5 -147.5zM575 129q80 23 133.5 90.5t53.5 159.5q0 80 -39 143q-47 76 -148 111v-504z" />
<glyph unicode="%" horiz-adv-x="1705" d="M115 1122q0 166 79.5 290t200.5 124q119 0 199 -124t80 -290q0 -164 -80 -287.5t-199 -123.5t-199.5 123.5t-80.5 287.5zM254 1122q0 -133 43 -210.5t98 -77.5q53 0 96.5 77.5t43.5 210.5t-43 212t-97 79q-53 0 -94 -74q-47 -84 -47 -217zM354 -72l6 21l912 1564 q16 23 37 23q16 0 29.5 -11.5t13.5 -25.5q0 -18 -6 -26l-912 -1565q-12 -23 -35 -23q-45 0 -45 43zM1028 297q0 164 81 289t200 125t199.5 -125t80.5 -289t-79.5 -288t-200.5 -124q-117 0 -199 124t-82 288zM1169 297q0 -133 43 -211t97 -78q53 0 96 78t43 211t-43 212 t-96 79t-96.5 -78t-43.5 -213z" />
<glyph unicode="&#x26;" horiz-adv-x="1552" d="M86 301q0 117 104 231q25 27 209 187q-33 84 -49 160.5t-16 181.5q0 158 65 270q78 135 217 135q115 0 190 -93t75 -220q0 -94 -68 -195q-31 -45 -242 -256q55 -115 142 -233q74 -102 176 -215q133 113 219 260q70 121 133 317l127 -32q-53 -190 -137 -338 q-96 -172 -240 -299q61 -37 105.5 -54.5t111.5 -17.5q57 0 119 12.5t111 30.5v-143q-51 -14 -116 -24.5t-114 -10.5q-98 0 -187 35t-149 88q-76 -53 -185 -88t-218 -35q-174 0 -278.5 100.5t-104.5 245.5zM246 315q0 -94 61.5 -159.5t161.5 -65.5q147 0 297 80 q-55 47 -162 190q-117 156 -151 240q-127 -113 -144 -131q-63 -72 -63 -154zM467 1128q0 -68 10 -134t43 -167q90 80 148 154q75 98 75 172q0 76 -32.5 131t-94.5 55q-72 0 -110.5 -61t-38.5 -150z" />
<glyph unicode="'" horiz-adv-x="569" d="M201 1421h151l-16 -684h-119z" />
<glyph unicode="(" horiz-adv-x="796" d="M160 512q0 362 114 629q96 221 283 395h123q-176 -180 -262 -403q-98 -258 -99 -621q0 -371 99 -631q90 -237 262 -393h-123q-176 143 -278 383q-119 276 -119 641z" />
<glyph unicode=")" horiz-adv-x="796" d="M117 -512q170 154 260 391q100 264 100 633q0 367 -96 618q-86 223 -264 406h123q186 -172 282 -395q115 -264 115 -629t-117 -639q-102 -238 -280 -385h-123z" />
<glyph unicode="*" d="M127 895q0 39 43 59l238 127l-236 129q-45 20 -45 58q0 16 17.5 47t50.5 31q20 0 43 -13l221 -155l-21 282q0 76 72 76q68 0 68 -78l-11 -280l213 151q23 14 45 14q37 0 60 -38q10 -16 10 -37q0 -39 -43 -62l-236 -123l240 -129q41 -20 41 -57q0 -18 -12 -41 q-18 -41 -60 -41q-18 0 -45 16l-213 152l17 -283q6 -72 -74 -71q-70 0 -70 76l15 278l-213 -152q-23 -14 -45 -14q-35 0 -58 41q-12 18 -12 37z" />
<glyph unicode="+" horiz-adv-x="1593" d="M115 512q0 18 10 30.5t31 12.5h596v604q0 16 9 28.5t34 12.5q41 0 41 -41v-604h589q16 0 28.5 -9t12.5 -34q0 -41 -41 -41h-589v-604q0 -23 -19 -35q-10 -6 -22 -6q-18 0 -30.5 10t-12.5 31v604h-596q-23 0 -32 14.5t-9 26.5z" />
<glyph unicode="," horiz-adv-x="569" d="M199 -256l57 256h-55v170h170v-170l-86 -256h-86z" />
<glyph unicode="-" horiz-adv-x="681" d="M25 393v119h528v-119h-528z" />
<glyph unicode="." horiz-adv-x="569" d="M201 0v170h170v-170h-170z" />
<glyph unicode="/" d="M115 -473l2 16l706 1966q8 27 35 27q43 0 43 -39l-2 -16l-706 -1966q-8 -27 -35 -27q-43 0 -43 39z" />
<glyph unicode="0" d="M86 670q0 389 125 567q106 152 295 152q186 0 293 -152q127 -182 127 -567q0 -387 -125 -566q-104 -150 -295 -149q-188 0 -293 149q-127 180 -127 566zM246 694q0 -279 45 -420q61 -195 215 -194q150 0 213 192q49 150 49 422q0 266 -47 398q-61 172 -215 172 q-152 0 -213 -170q-47 -133 -47 -400z" />
<glyph unicode="1" d="M180 1128v121q123 0 227.5 35t161.5 105h39v-1266h254v-123h-667v123h251v1057q-53 -23 -124.5 -37.5t-141.5 -14.5z" />
<glyph unicode="2" d="M86 1067q43 131 104 201q106 121 291 121q205 0 326 -144q102 -122 102 -284q0 -129 -96 -259q-66 -86 -221 -225q-70 -61 -162 -151q-63 -61 -180 -179h655v-147h-803v133l340 344q135 133 176 180q125 147 125 304q0 129 -84 210.5t-206 81.5q-133 0 -205 -108 q-39 -59 -74 -197z" />
<glyph unicode="3" d="M86 170l20 131q78 -111 191 -166q98 -49 203 -49q104 0 174.5 79t70.5 210q0 139 -61 215t-172 76h-172v125q25 0 79 6t93 14q78 23 134 96.5t56 169.5q0 82 -49 133q-55 57 -149 58q-115 0 -197 -62q-74 -55 -119 -159l-75 110q88 127 174 176q96 55 217 56 q147 0 250 -80q113 -88 112 -232q0 -119 -65 -213q-57 -84 -156 -133q121 -43 195 -129q84 -98 84 -227q0 -184 -128 -302t-296 -118q-121 0 -235.5 60.5t-178.5 154.5z" />
<glyph unicode="4" d="M57 354v123l514 866h187v-866h205v-123h-205v-354h-158v354h-543zM215 477h397v793q-8 -131 -397 -793z" />
<glyph unicode="5" d="M78 162l65 114q59 -96 154 -147q82 -43 172 -43q104 0 176 68q92 86 92 254q0 154 -60.5 237.5t-144.5 83.5q-86 0 -144 -42t-85 -107h-137v763h680v-135h-537v-438q31 33 91.5 58.5t131.5 25.5q125 0 236 -94q147 -125 147 -352q0 -203 -143 -334q-131 -119 -303 -119 q-133 0 -252 74q-94 57 -139 133z" />
<glyph unicode="6" d="M86 657q0 303 150.5 517.5t394.5 214.5q66 0 104.5 -8.5t102.5 -30.5v-127q-53 20 -100.5 32.5t-106.5 12.5q-147 0 -244 -115q-109 -129 -133 -381q80 82 164 123t184 41q137 0 230.5 -141.5t93.5 -364.5q0 -193 -123 -334t-295 -141q-227 0 -338 244q-84 186 -84 458z M260 471q0 -168 69.5 -276.5t178.5 -108.5q106 0 174 80q78 92 78 264q0 180 -62.5 277.5t-175.5 97.5q-119 0 -190.5 -86t-71.5 -248z" />
<glyph unicode="7" d="M86 1198v145h838v-139q-186 -219 -301 -497q-141 -346 -142 -730h-172q0 279 80 535q66 209 186 406q90 145 211 280h-700z" />
<glyph unicode="8" d="M86 371q0 113 72.5 213t208.5 145q-82 18 -158 90q-96 92 -96 207q0 160 117.5 261.5t275.5 101.5t274.5 -101.5t116.5 -261.5q0 -113 -94 -205q-78 -74 -158 -92q135 -45 211 -147q70 -94 70 -211q0 -180 -131 -301q-123 -115 -289 -115t-289 115q-131 121 -131 301z M250 371q0 -150 90 -226q70 -59 166 -59t168 64q90 80 90 221q0 139 -80 221q-72 74 -178 74q-109 0 -182.5 -78t-73.5 -217zM254 1026q0 -92 63 -160q72 -76 189 -75q117 0 182.5 67.5t65.5 167.5q0 111 -68 176.5t-180 65.5q-117 0 -184.5 -67.5t-67.5 -174.5z" />
<glyph unicode="9" d="M86 895q0 211 131 356q125 137 289 138q229 0 338 -242q82 -183 82 -457q0 -305 -146.5 -520t-359.5 -215q-76 0 -154 28.5t-116 69.5l59 115q51 -43 96 -62.5t115 -19.5q131 0 223 113q111 135 111 379q-145 -166 -344 -166q-137 0 -230.5 138t-93.5 345zM252 895 q0 -176 64.5 -266t175.5 -90q117 0 187.5 90t70.5 266q0 150 -58 252q-66 117 -186 117q-111 0 -178 -88q-76 -100 -76 -281z" />
<glyph unicode=":" horiz-adv-x="569" d="M201 0v170h170v-170h-170zM201 739v170h170v-170h-170z" />
<glyph unicode=";" horiz-adv-x="569" d="M199 -256l57 256h-55v170h170v-170l-86 -256h-86zM201 739v170h170v-170h-170z" />
<glyph unicode="&#x3c;" horiz-adv-x="1593" d="M172 512q0 12 6 20t37 25l1135 563l20 2q16 0 26.5 -12t10.5 -27q0 -27 -25 -36l-1075 -535l1075 -539q25 -9 25 -32q0 -14 -6 -25q-12 -23 -35 -22l-23 6l-1128 563q-27 14 -31 18q-12 10 -12 31z" />
<glyph unicode="=" horiz-adv-x="1593" d="M115 305q0 41 43 41h1269q23 0 31 -15.5t8 -25.5q0 -41 -39 -41h-1269q-43 0 -43 41zM115 719q0 18 10 30.5t31 12.5h1269q16 0 28.5 -9t12.5 -34q0 -41 -41 -41h-1269q-23 0 -32 14.5t-9 26.5z" />
<glyph unicode="&#x3e;" horiz-adv-x="1593" d="M170 -59q0 23 25 32l1075 539l-1075 535q-25 10 -25 36q0 39 37 39l20 -2l1135 -563q25 -12 31 -18q12 -11 12 -27t-10.5 -26.5t-32.5 -22.5l-1129 -563l-22 -6q-16 0 -28.5 14t-12.5 33z" />
<glyph unicode="?" horiz-adv-x="966" d="M115 1358q72 51 156.5 79.5t189.5 28.5q221 0 319 -112q70 -80 70 -207q0 -102 -45 -172q-27 -43 -84 -88q-78 -59 -137.5 -171t-59.5 -214v-133h-137v133q0 115 58.5 253t138.5 210q49 41 59 51q49 53 49 131q0 117 -82 164q-53 31 -149 30q-90 0 -155.5 -26.5 t-145.5 -89.5zM373 0v170h170v-170h-170z" />
<glyph unicode="@" horiz-adv-x="1366" d="M115 713q0 281 178 495q197 236 500 236q254 0 364 -217q86 -170 86 -477q0 -244 -117 -381q-106 -125 -258 -125q-129 0 -235 102q-137 131 -137 367q0 231 137 362q109 104 235 105q41 0 81 -11.5t91 -42.5q-29 88 -93 140.5t-154 52.5q-195 0 -349 -152 q-178 -176 -178 -454q0 -242 150.5 -426.5t376.5 -184.5q86 0 173 20.5t146 53.5h137q-109 -111 -237 -160q-104 -39 -219 -39q-295 0 -492 228q-186 215 -186 508zM643 713q0 -166 86 -267q70 -80 139 -79q76 0 142 77q84 99 84 269q0 166 -84 264q-68 78 -142 78t-139 -76 q-86 -98 -86 -266z" />
<glyph unicode="A" horiz-adv-x="1366" d="M57 0l535 1421h182l535 -1421h-189l-157 420h-594l-160 -420h-152zM410 535h510q-78 215 -136 376q-88 246 -114 365q-29 -102 -54 -174q-6 -16 -79 -219q-102 -283 -127 -348z" />
<glyph unicode="B" horiz-adv-x="1366" d="M201 0v1421h493q205 0 350.5 -104.5t145.5 -251.5q0 -119 -113 -211q-92 -76 -217 -109q133 -20 244 -102q143 -107 143 -254q0 -166 -160 -280q-152 -109 -342 -109h-544zM369 117h325q147 0 260 71q127 80 127 203q0 121 -130 205t-285 84h-297v-563zM369 803h280 q143 0 262 75.5t119 184.5t-129 180q-115 63 -260 64h-272v-504z" />
<glyph unicode="C" horiz-adv-x="1308" d="M135 711q0 309 187.5 532t480.5 223q94 0 183 -14t192 -59l-31 -170q-92 61 -170 84.5t-174 23.5q-219 0 -359 -194q-129 -180 -129 -426q0 -227 113 -404q137 -217 381 -217q127 0 205 31q47 18 170 98l14 -145q-94 -68 -187 -93.5t-204 -25.5q-293 0 -488 231 q-184 219 -184 525z" />
<glyph unicode="D" horiz-adv-x="1478" d="M197 0v1421h551q233 0 415 -192q199 -210 199 -529q0 -309 -199 -514q-182 -186 -415 -186h-551zM373 117h336q166 0 301 125q176 163 176 458q0 301 -172 471q-137 135 -305 136h-336v-1190z" />
<glyph unicode="E" horiz-adv-x="1222" d="M193 0v1415h913v-135l-731 4v-487h674v-123h-674v-529l760 5v-150h-942z" />
<glyph unicode="F" horiz-adv-x="1165" d="M193 0v1415h890v-135l-708 4v-512h622v-125h-622v-647h-182z" />
<glyph unicode="G" horiz-adv-x="1366" d="M135 711q0 322 194.5 538.5t477.5 216.5q117 0 206 -21.5t201 -78.5l-30 -172q-80 63 -158 96q-102 43 -219 43q-188 0 -332 -159q-160 -178 -160 -463q0 -287 160 -463q141 -158 332 -158q74 0 137.5 11.5t124.5 33.5v348h-274v127h434v-553q-221 -102 -422 -102 q-283 0 -477.5 217t-194.5 539z" />
<glyph unicode="H" horiz-adv-x="1449" d="M193 0v1421h182v-618h698v618h182v-1421h-182v680h-698v-680h-182z" />
<glyph unicode="I" horiz-adv-x="569" d="M193 0v1421h186v-1421h-186z" />
<glyph unicode="J" horiz-adv-x="966" d="M86 43l27 158q113 -117 262 -117q106 0 172.5 53t66.5 131v1153h172v-1153q0 -135 -95 -224t-259 -89q-76 0 -173 22.5t-173 65.5z" />
<glyph unicode="K" horiz-adv-x="1421" d="M197 0v1421h174v-762l739 762h188l-544 -559l573 -862h-190l-498 745l-268 -280v-465h-174z" />
<glyph unicode="L" horiz-adv-x="1110" d="M193 0v1421h176v-1290l643 6v-137h-819z" />
<glyph unicode="M" horiz-adv-x="1792" d="M205 0v1421h229q61 -162 211 -559q117 -309 166 -448q70 -197 76 -242q10 51 78 240q90 254 163 448q106 281 213 561h232v-1421h-158v1276q-10 -55 -84 -262q-27 -72 -176 -469q-27 -72 -197 -516h-147q-127 334 -195 514q-92 246 -169.5 467t-84.5 266l-4 -1276h-153z " />
<glyph unicode="N" horiz-adv-x="1449" d="M197 0v1421h252q141 -285 284 -569q96 -193 232 -463q109 -219 120 -246l2 1278h152v-1421h-252q-309 616 -459 920q-139 281 -174 358l-4 -1278h-153z" />
<glyph unicode="O" horiz-adv-x="1507" d="M309 1257q184 209 441 209q262 0 447 -221t185 -540q0 -322 -196 -541q-186 -209 -436 -209q-258 0 -443 209q-192 216 -192 538q0 337 194 555zM291 735q0 -274 134 -459.5t325 -185.5q188 0 320 184.5t132 460.5q0 268 -137 439q-128 161 -313 161h-2q-184 0 -318 -161 q-141 -172 -141 -439z" />
<glyph unicode="P" horiz-adv-x="1306" d="M197 0v1421h530q176 0 313 -112q150 -123 150 -301t-148 -299q-139 -115 -315 -115h-350v-594h-180zM371 711h315q135 0 238.5 84t103.5 213q0 131 -102.5 215t-239.5 84h-315v-596z" />
<glyph unicode="Q" horiz-adv-x="1507" d="M115 707q0 315 186 537t449 222q262 0 447 -222t185 -537q0 -203 -82.5 -374t-222.5 -272l232 -317h-213l-164 242q-86 -31 -182 -31q-264 0 -449.5 219t-185.5 533zM289 707q0 -272 134 -447.5t327 -175.5q20 0 48.5 4t53.5 10l-195 293h181l157 -215q98 82 155.5 219.5 t57.5 311.5q0 270 -134 451t-324 181t-325.5 -181t-135.5 -451z" />
<glyph unicode="R" horiz-adv-x="1323" d="M197 0v1421h508q199 0 348 -109.5t149 -269.5q0 -113 -80 -208q-96 -115 -272 -162l410 -672h-181l-385 651h-323v-651h-174zM371 774h319q127 0 228 64q118 75 118 204q0 131 -125 205q-100 59 -217 60h-323v-533z" />
<glyph unicode="S" horiz-adv-x="1138" d="M90 104l29 172q68 -66 178 -116q135 -61 262 -62q117 0 201 70q92 78 92 203q0 117 -83 187.5t-239 94.5q-176 33 -282 123q-131 111 -131 289q0 143 102 258q129 143 356 143q104 0 194.5 -22.5t174.5 -79.5l-29 -176q-61 66 -135 98q-90 41 -211 41q-123 0 -208 -66.5 t-85 -173.5q0 -100 75 -162.5t254 -96t295 -149.5t116 -292q0 -182 -135.5 -307t-319.5 -125q-125 0 -253 41t-218 108z" />
<glyph unicode="T" horiz-adv-x="1394" d="M74 1276v133h1235v-133l-529 2v-1278h-178v1278z" />
<glyph unicode="U" horiz-adv-x="1409" d="M193 434v987h180v-987q0 -117 67 -221q92 -141 265 -141q172 0 264 137q72 106 71 225v987h164v-987q0 -162 -129 -309q-150 -170 -370 -170q-227 0 -379 168q-133 147 -133 311z" />
<glyph unicode="V" horiz-adv-x="1366" d="M29 1421h186q100 -256 201 -510q111 -285 186 -489q84 -227 90 -277q8 53 92 277q92 248 189.5 495.5t197.5 503.5h160l-557 -1421h-188z" />
<glyph unicode="W" horiz-adv-x="1933" d="M29 1421h176q84 -291 168 -581q100 -346 127 -451q49 -190 49 -244q2 57 47 240q39 152 123 446.5t170 589.5h166q49 -168 168 -587q90 -315 125 -449q49 -184 53 -240q2 57 47 230.5t130 462t173 583.5h145l-415 -1421h-174q-141 481 -241.5 843.5t-109.5 432.5 q-8 -55 -55 -238q-20 -80 -125 -448q-76 -266 -168 -590h-162z" />
<glyph unicode="X" horiz-adv-x="1366" d="M29 0l544 748l-516 673h211l396 -532l385 532h196l-491 -669l577 -752h-211l-454 627l-441 -627h-196z" />
<glyph unicode="Y" horiz-adv-x="1366" d="M8 1421h211l477 -700l482 700h182l-590 -848v-573h-178v573z" />
<glyph unicode="Z" horiz-adv-x="1251" d="M115 0v92l786 1202l-760 -4v131h992v-84l-789 -1206l799 6v-137h-1028z" />
<glyph unicode="[" horiz-adv-x="591" d="M205 -512v2048h340v-123h-189v-1800h191v-125h-342z" />
<glyph unicode="\" d="M123 1497q0 39 43 39q27 0 35 -27l706 -1966l2 -16q0 -39 -43 -39q-27 0 -35 27l-706 1966z" />
<glyph unicode="]" horiz-adv-x="591" d="M45 -387h191v1800h-189v123h340v-2048h-342v125z" />
<glyph unicode="^" d="M160 1079l286 342h132l286 -342h-125l-227 252l-227 -252h-125z" />
<glyph unicode="_" horiz-adv-x="1593" d="M172 -461q0 43 43 43h1149q43 0 43 -43t-43 -43h-1149q-43 0 -43 43z" />
<glyph unicode="`" d="M172 1421h164l264 -342h-123z" />
<glyph unicode="a" horiz-adv-x="985" d="M90 231q0 131 159 203t400 72v88q0 121 -59 180q-47 47 -115 47q-162 0 -307 -104l-14 139q72 45 154.5 66.5t166.5 21.5q133 0 223 -80q109 -96 109 -270v-594h-152v68q-47 -41 -145 -66t-180 -25q-121 0 -187 89q-53 72 -53 165zM236 231q0 -57 60 -92t132 -35 q109 0 165 40t56 112v143q-195 0 -304 -42t-109 -126z" />
<glyph unicode="b" horiz-adv-x="1058" d="M164 0v1421h158v-606q63 53 137 82q90 35 194 35q129 0 226 -125q104 -137 104 -350q0 -219 -123 -357q-111 -123 -256 -123q-90 0 -164 35q-55 27 -116 84v-96h-160zM324 240q72 -135 200 -136q129 0 216 93.5t87 259.5q0 143 -69 241q-78 109 -211 109 q-70 0 -127.5 -34t-95.5 -87v-446z" />
<glyph unicode="c" horiz-adv-x="909" d="M74 457q0 203 124 345t326 142q102 0 181 -26q51 -18 129 -66l-25 -135q-74 51 -136.5 73.5t-148.5 22.5q-139 0 -216 -104.5t-77 -251.5q0 -143 77 -245.5t208 -102.5q76 0 158 24.5t157 81.5l11 -141q-72 -43 -154 -70t-172 -27q-193 0 -317.5 139.5t-124.5 340.5z" />
<glyph unicode="d" horiz-adv-x="1058" d="M74 455q0 186 98 325q106 152 270 152q70 0 155 -32t142 -79v600h154v-1421h-156v109q-72 -59 -125 -86q-88 -45 -182 -46q-156 0 -256 141.5t-100 336.5zM233 455q0 -162 79 -256.5t202 -94.5q76 0 139 50q43 35 84 96v444q-35 49 -89 80t-111 31q-135 0 -219.5 -94.5 t-84.5 -255.5z" />
<glyph unicode="e" horiz-adv-x="909" d="M70 465q0 186 104 323q119 156 307 156q195 0 289 -168q72 -128 72 -323h-633q0 -143 88 -246t215 -103q63 0 143 25q100 31 160 84l14 -137q-70 -43 -151.5 -71t-165.5 -28q-195 0 -318.5 145.5t-123.5 342.5zM223 569h500q-14 102 -72 170q-66 78 -170 78 q-100 0 -170 -78q-59 -66 -88 -170z" />
<glyph unicode="f" horiz-adv-x="626" d="M53 793v116h152v203q0 141 97 236.5t235 95.5q49 0 89 -2t76 -10v-142q-61 31 -155 31q-92 0 -141.5 -42t-49.5 -103v-267h224v-116h-222v-793h-153v793h-152z" />
<glyph unicode="g" d="M57 -143q0 72 41 131q35 51 90 82q-25 27 -39 64.5t-14 72.5q0 72 17 115q2 8 41 75q-27 39 -41 74q-23 59 -23 127q0 145 92 239.5t228 94.5q66 0 112.5 -18.5t79.5 -45.5q39 23 130 43.5t190 20.5l22 -129q-25 2 -44 3t-34 1h-28q-43 0 -92.5 -4t-77.5 -4 q61 -88 61 -201q0 -147 -100 -242q-92 -88 -219 -88q-72 0 -125 27q-29 14 -62 37q-6 -20 -12 -39t-6 -39q0 -55 24.5 -83t65.5 -28h221q166 0 264 -53q133 -72 133 -233q0 -115 -127 -196t-319 -81q-190 0 -319.5 83t-129.5 194zM195 -143q0 -53 63 -99q84 -59 248 -59 q160 0 246 59q65 46 65 99q0 78 -94 112q-72 27 -186 27h-203q-53 0 -96 -39t-43 -100zM266 598q0 -98 50.5 -156.5t132.5 -58.5t131 57.5t49 157.5t-48.5 158.5t-131.5 58.5q-84 0 -133.5 -59.5t-49.5 -157.5z" />
<glyph unicode="h" horiz-adv-x="1058" d="M164 0v1421h158v-633q53 63 108 97q78 47 176 47q274 0 275 -295v-637h-160v627q0 88 -48 134t-143 46q-86 0 -146 -76t-60 -201v-530h-160z" />
<glyph unicode="i" horiz-adv-x="489" d="M154 1204v182h182v-182h-182zM166 0v909h160v-909h-160z" />
<glyph unicode="j" horiz-adv-x="546" d="M-125 -348l29 123q33 -31 73.5 -47.5t90.5 -16.5q82 0 127 45q35 35 34 74v1079h156v-1073q0 -90 -70 -168q-80 -88 -190 -88q-49 0 -121 16.5t-129 55.5zM203 1204v182h182v-182h-182z" />
<glyph unicode="k" horiz-adv-x="1001" d="M168 0v1421h151v-938l426 426h183l-353 -352l398 -557h-168l-326 457l-168 -162v-295h-143z" />
<glyph unicode="l" horiz-adv-x="489" d="M164 0v1421h151v-1421h-151z" />
<glyph unicode="m" horiz-adv-x="1626" d="M164 0v932h145v-156q70 82 125 113q74 43 184 43q119 0 187 -58q33 -29 74 -102q53 72 116 111q82 49 191 49q152 0 221 -88q59 -76 59 -209v-635h-161v625q0 82 -43 129q-51 55 -156 55q-96 0 -153.5 -81t-57.5 -198v-530h-160v625q0 82 -51 133t-145 51 q-117 0 -172 -109q-39 -76 -39 -170v-530h-164z" />
<glyph unicode="n" horiz-adv-x="1058" d="M164 0v932h145v-154q66 80 119 111q72 43 178 43q133 0 206 -73t73 -224v-635h-162v625q0 84 -43 131q-49 53 -150 53q-100 0 -157 -90q-49 -78 -49 -189v-530h-160z" />
<glyph unicode="o" d="M66 453q0 199 120 340q128 151 323 151h3q195 0 324 -151q120 -141 120 -340q0 -195 -127 -335.5t-317 -140.5q-188 0 -317 141.5t-129 334.5zM223 475q0 -156 77 -260t212 -104q133 0 209 105t76 259q0 141 -72 238q-78 104 -213 104t-212 -100.5t-77 -241.5z" />
<glyph unicode="p" horiz-adv-x="1058" d="M164 -397v1306h160v-90q66 51 135 78q90 35 198 35q150 0 244 -152q86 -137 86 -323q0 -203 -111.5 -341.5t-271.5 -138.5q-88 0 -166 37q-59 29 -110 76v-487h-164zM328 229q41 -63 75 -88q49 -37 121 -37q121 0 212 104t91 249q0 152 -94 254q-84 92 -186 92 q-66 0 -126.5 -33t-92.5 -84v-457z" />
<glyph unicode="q" horiz-adv-x="1058" d="M74 453q0 201 110.5 340t278.5 139q88 0 162 -41q55 -31 114 -94v135h154v-1329h-156v497q-70 -57 -147.5 -90t-163.5 -33q-162 0 -257 131.5t-95 344.5zM238 453q0 -162 88 -260q80 -88 190 -89q72 0 128 39.5t95 102.5v370q-39 100 -86 143.5t-116 43.5 q-115 0 -201 -88q-98 -100 -98 -262z" />
<glyph unicode="r" horiz-adv-x="700" d="M164 0v932h143v-197q63 96 150.5 146.5t199.5 50.5v-137q-131 0 -235.5 -98.5t-104.5 -233.5v-463h-153z" />
<glyph unicode="s" horiz-adv-x="784" d="M57 74l27 143q53 -43 143 -77t179 -34q100 0 151 48q41 37 41 90q0 68 -58.5 104.5t-179.5 52.5q-131 23 -209.5 94.5t-78.5 182.5q0 139 102 207q90 59 238 59q76 0 151.5 -14.5t145.5 -52.5l-23 -138q-92 43 -115 52q-75 26 -175 26h-7q-90 0 -131 -27.5t-41 -93.5 q0 -63 53.5 -95t177 -51.5t199.5 -82.5q92 -78 92 -199q0 -172 -131 -243q-86 -47 -202 -48q-197 0 -349 97z" />
<glyph unicode="t" horiz-adv-x="739" d="M37 793v116h174v260h143v-260h285v-116h-285v-545q0 -66 24.5 -104t78.5 -38q41 0 88 15.5t92 52.5l35 -123q-55 -31 -137 -52.5t-152 -21.5q-94 0 -134 64.5t-40 171.5v580h-172z" />
<glyph unicode="u" horiz-adv-x="1058" d="M166 205v704h162v-704q0 -68 37.5 -92.5t119.5 -24.5q96 0 169 56.5t73 140.5v624h158v-909h-152v98q-59 -59 -158.5 -90t-189.5 -31q-219 0 -219 228z" />
<glyph unicode="v" horiz-adv-x="944" d="M29 909h157q72 -193 147 -386t95 -255q37 -106 49 -166q12 63 46 160.5t95 259.5q74 193 148 387h154l-357 -909h-180z" />
<glyph unicode="w" horiz-adv-x="1398" d="M29 909h153q217 -719 217 -807q8 68 32 162t69 252q57 197 116 393h148q117 -393 158 -534q57 -197 67 -273q10 66 34 154t75 260q59 197 119 393h149l-283 -909h-178q-57 195 -114 391q-37 125 -67 244t-36 170q-14 -123 -217 -805h-162z" />
<glyph unicode="x" horiz-adv-x="944" d="M0 0l397 465l-385 444h168l285 -338l274 338h170l-374 -444l407 -465h-168l-309 383l-297 -383h-168z" />
<glyph unicode="y" horiz-adv-x="944" d="M29 909h159q147 -342 168 -391q74 -178 103.5 -267t29.5 -153q0 61 28 157.5t91 258.5q41 109 158 395h154l-435 -1065q-57 -143 -113.5 -203.5t-138.5 -60.5q-70 0 -147 17l-14 143q61 -29 92 -37t69 -8q47 0 82 45q27 33 54 104q14 35 22 54q25 59 37 98z" />
<glyph unicode="z" horiz-adv-x="890" d="M57 0v82l551 709h-522v118h737v-80l-549 -706l551 6v-129h-768z" />
<glyph unicode="{" d="M111 446v125q135 0 229 68t94 164v487q0 104 96.5 175t253.5 71h131v-123q-176 0 -248.5 -23.5t-72.5 -99.5v-487q0 -113 -84 -194t-234 -97q145 -18 231.5 -104t86.5 -197v-479q0 -74 73.5 -96.5t247.5 -22.5v-125h-127q-139 0 -239 61q-115 70 -115 183v479 q0 102 -91 168.5t-232 66.5z" />
<glyph unicode="|" horiz-adv-x="569" d="M242 -471v1968q0 16 9 27.5t34 11.5q39 0 39 -39v-1968q0 -41 -39 -41q-18 0 -30.5 10t-12.5 31z" />
<glyph unicode="}" d="M109 -387q322 0 321 119v479q0 109 82 192q90 90 236 109q-145 16 -231.5 98t-86.5 193v487q0 74 -74.5 98.5t-246.5 24.5v123h131q156 0 253 -70.5t97 -175.5v-487q0 -94 95 -163t228 -69v-125q-137 0 -230 -66.5t-93 -168.5v-479q0 -111 -115 -181q-104 -63 -239 -63 h-127v125z" />
<glyph unicode="~" d="M174 1147q0 115 60.5 177t140.5 62q37 0 86 -27.5t65 -37.5q59 -37 64 -39q27 -12 53 -12q37 0 57.5 33.5t20.5 82.5h121q0 -98 -55.5 -168.5t-143.5 -70.5q-39 0 -74 18q-37 25 -55 37q-61 39 -68 41q-45 25 -71 25q-43 0 -61.5 -40t-18.5 -81h-121z" />
<glyph unicode="&#xa1;" horiz-adv-x="653" d="M240 854v170h170v-170h-170zM242 -397l14 1059h139l15 -1059h-168z" />
<glyph unicode="&#xa2;" horiz-adv-x="909" d="M74 457q0 203 124 345t326 142l41 -2l47 166l115 -33l-43 -151q43 -12 80 -31q25 -12 70 -41l-25 -135q-41 29 -81 49t-81 33l-194 -682q27 -8 63 -8q76 0 158 24.5t157 81.5l11 -141q-72 -43 -154 -70t-172 -27q-51 0 -100 13l-54 -191l-114 33l57 201 q-106 61 -168.5 175t-62.5 249zM231 457q0 -84 30 -161t83 -124l184 641q-141 0 -223 -108q-74 -98 -74 -248z" />
<glyph unicode="&#xa3;" horiz-adv-x="1308" d="M0 111q0 80 94 122q72 33 162 33q37 0 62.5 -4t41.5 -8q8 39 9 76v295h-144v114h144v303q0 139 92 261q109 141 270 141q141 0 238.5 -122t97.5 -298h-158q0 109 -32 186q-45 109 -146 109q-104 0 -160 -98q-43 -78 -43 -179v-303h203v-114h-203v-295q0 -39 -5 -64.5 t-17 -56.5q258 -111 373 -111q96 0 163 41q80 47 80 129h158q0 -156 -172 -233q-125 -57 -289 -58q-94 0 -215 41q-70 25 -172 74q-59 -55 -124.5 -85t-133.5 -30q-66 0 -113 27q-61 35 -61 107zM150 113q0 -14 26 -15q23 0 53.5 9.5t53.5 25.5q-39 14 -80 14q-53 0 -53 -34 z" />
<glyph unicode="&#xa4;" d="M29 342l161 162q-37 51 -56 109.5t-19 125.5q0 63 19.5 124t55.5 110l-161 164l86 86l161 -164q106 78 236 78q129 0 233 -78l164 164l86 -86l-164 -162q78 -106 78 -236q0 -63 -19.5 -123.5t-55.5 -109.5l161 -164l-86 -86l-161 164q-106 -78 -236 -78q-129 0 -233 78 l-164 -164zM233 739q0 -115 82 -196.5t197 -81.5t197 81.5t82 196.5t-82 197t-197 82t-197 -82t-82 -197z" />
<glyph unicode="&#xa5;" d="M8 1343h211l273 -587h73l273 587h182l-305 -587h223v-119h-285l-53 -102v-58h338v-119h-338v-358h-178v358h-334v119h334v58l-53 102h-281v119h219z" />
<glyph unicode="&#xa6;" horiz-adv-x="569" d="M242 41v494q0 16 9 27t34 11q39 0 39 -38v-494q0 -41 -39 -41q-18 0 -30.5 10t-12.5 31zM242 999v498q0 16 9 27.5t34 11.5q39 0 39 -39v-498q0 -41 -39 -41q-18 0 -30.5 10.5t-12.5 30.5z" />
<glyph unicode="&#xa7;" horiz-adv-x="909" d="M145 528q0 98 45.5 177t116.5 118q-88 70 -125 136.5t-37 146.5q0 150 97 248q88 90 213 90q117 0 197.5 -83t80.5 -198q0 -33 -23.5 -56.5t-56.5 -23.5t-56.5 23.5t-23.5 56.5q0 59 -24 101q-33 55 -94 55q-74 0 -112 -66.5t-38 -146.5q0 -94 45 -154.5t145.5 -106.5 t174.5 -128q90 -100 90 -219q0 -195 -160 -297q66 -45 107 -109q53 -82 53 -174q0 -147 -93.5 -242.5t-211.5 -95.5q-113 0 -197 78t-84 203q0 33 23.5 56.5t56.5 23.5t56.5 -23.5t23.5 -56.5q0 -57 29.5 -106.5t91.5 -49.5q55 0 96 49q51 61 51 164q0 98 -50 161.5 t-148.5 106.5t-167.5 121q-90 100 -91 221zM305 528q0 -94 47 -159q37 -49 103 -84q63 0 104 58.5t41 154.5t-51 166q-37 49 -94 75q-74 0 -112 -65.5t-38 -145.5z" />
<glyph unicode="&#xa8;" d="M229 1227v170h170v-170h-170zM625 1227v170h170v-170h-170z" />
<glyph unicode="&#xa9;" horiz-adv-x="2048" d="M115 512q0 377 266 643t643 266t643 -266t266 -643t-266 -643t-643 -266t-643 266t-266 643zM197 512q0 -344 241.5 -585.5t585.5 -241.5t585.5 241.5t241.5 585.5t-241.5 585.5t-585.5 241.5t-585.5 -241.5t-241.5 -585.5zM559 498q0 205 139 352q150 158 379 158 q74 0 139.5 -10.5t143.5 -39.5l-21 -127q-61 41 -127.5 60.5t-134.5 19.5q-166 0 -271.5 -122.5t-105.5 -290.5q0 -162 95 -281q106 -135 282 -135q92 0 155.5 19.5t139.5 68.5l10 -107q-68 -41 -141.5 -60t-163.5 -19q-219 0 -368.5 149.5t-149.5 364.5z" />
<glyph unicode="&#xaa;" horiz-adv-x="690" d="M63 602v82h500v-82h-500zM63 946q0 92 112 142.5t280 50.5v61q0 86 -41 127q-33 33 -82 33q-113 0 -215 -74l-11 98q53 31 110.5 46.5t115.5 15.5q92 0 157 -57q76 -68 76 -189v-416h-106v47q-33 -29 -102.5 -46t-125.5 -17q-86 0 -131 61q-37 49 -37 117zM164 946 q0 -39 42 -63.5t93 -24.5q53 0 92 16q64 28 64 89v100q-135 0 -213 -29.5t-78 -87.5z" />
<glyph unicode="&#xab;" horiz-adv-x="1363" d="M193 449l352 325h160l-340 -325l340 -326h-160zM647 449l352 325h160l-340 -325l340 -326h-160z" />
<glyph unicode="&#xac;" horiz-adv-x="1366" d="M117 676q0 41 41 41h1044q41 0 41 -41v-549q0 -41 -41 -41t-41 41v508h-1003q-41 0 -41 41z" />
<glyph unicode="&#xad;" horiz-adv-x="1593" d="M170 512q0 41 41 41h1171q25 0 33 -15.5t8 -25.5q0 -41 -41 -41h-1171q-23 0 -32 14.5t-9 26.5z" />
<glyph unicode="&#xae;" horiz-adv-x="2048" d="M115 512q0 377 266 643t643 266t643 -266t266 -643t-266 -643t-643 -266t-643 266t-266 643zM197 512q0 -344 241.5 -585.5t585.5 -241.5t585.5 241.5t241.5 585.5t-241.5 585.5t-585.5 241.5t-585.5 -241.5t-241.5 -585.5zM655 0v995h394q152 0 270.5 -77.5 t118.5 -188.5q0 -84 -71 -158.5t-198 -103.5l310 -467h-144l-291 453h-251v-453h-138zM793 547h243q100 0 178 41q97 51 97 141t-101 139q-80 39 -176 39h-241v-360z" />
<glyph unicode="&#xaf;" d="M143 1137v137h738v-137h-738z" />
<glyph unicode="&#xb0;" horiz-adv-x="796" d="M100 1090q0 127 86 213t213 86t213 -86t86 -213t-86 -213t-213 -86t-213 86t-86 213zM219 1090q0 -78 51.5 -133.5t126.5 -55.5q74 0 127.5 55.5t53.5 133.5t-53.5 133t-127.5 55q-72 0 -125 -55.5t-53 -132.5z" />
<glyph unicode="&#xb1;" horiz-adv-x="1593" d="M115 41q0 41 41 41h600v559h-600q-23 0 -32 14.5t-9 26.5q0 41 41 41h600v600q0 23 14 32t27 9q41 0 41 -41v-600h600q25 0 33 -15.5t8 -25.5q0 -41 -41 -41h-600v-559h600q25 0 33 -15.5t8 -25.5q0 -41 -41 -41h-1282q-23 0 -32 14.5t-9 26.5z" />
<glyph unicode="&#xb2;" horiz-adv-x="817" d="M78 1542q35 92 92 144q82 72 215 71q158 0 252 -92q84 -82 84 -203q0 -94 -66 -172q-43 -53 -161 -139q-80 -59 -172 -135q-61 -51 -121 -103h520v-106h-631v98q100 92 156 139q2 2 129 107q217 180 217 311q0 88 -66.5 142.5t-158.5 54.5q-98 0 -156 -64 q-43 -47 -66 -135z" />
<glyph unicode="&#xb3;" horiz-adv-x="817" d="M78 932l16 94q59 -72 143.5 -106.5t163.5 -34.5q74 0 131.5 51t57.5 137q0 90 -57.5 141.5t-137.5 51.5h-121v96q27 0 55.5 1t65.5 7q66 12 114 58.5t48 115.5q0 55 -42 89t-112 34q-82 0 -148.5 -40t-96.5 -105l-60 82q37 53 105 96q92 57 200 57q106 0 189 -53 q94 -61 94 -160q0 -80 -49 -141q-41 -51 -113 -90q92 -33 144 -86q63 -66 63 -154q0 -127 -106 -209q-96 -74 -224 -73q-98 0 -186 40.5t-137 100.5z" />
<glyph unicode="&#xb4;" d="M418 1079l266 342h162l-305 -342h-123z" />
<glyph unicode="&#xb5;" d="M125 -397v1306h162v-604q0 -106 53 -155q47 -43 133 -44q139 0 209 101q57 82 57 201v501h162v-909h-153v133q-55 -82 -126 -121t-184 -39q-39 0 -79 12.5t-68 47.5l-4 -430h-162z" />
<glyph unicode="&#xb6;" horiz-adv-x="1241" d="M117 946q0 209 159 348q145 127 330 127h539q41 0 41 -41t-41 -41h-129v-1695q0 -41 -41 -41t-41 41v1695h-143v-1695q0 -41 -41 -41t-41 41v827q-182 0 -357 98q-236 133 -235 377z" />
<glyph unicode="&#xb7;" horiz-adv-x="569" d="M201 426v170h170v-170h-170z" />
<glyph unicode="&#xb8;" horiz-adv-x="909" d="M301 -393l150 348h124l-133 -348h-141z" />
<glyph unicode="&#xb9;" horiz-adv-x="817" d="M152 1573v90q88 0 168.5 22.5t132.5 71.5h30v-860h197v-90h-520v90h198v711q-35 -16 -90 -25.5t-116 -9.5z" />
<glyph unicode="&#xba;" horiz-adv-x="716" d="M45 602v82h625v-82h-625zM45 1102q0 137 88 240.5t225 103.5t224.5 -102.5t87.5 -241.5q0 -137 -89 -235.5t-223 -98.5q-131 0 -222 99.5t-91 234.5zM156 1116q0 -109 53 -181.5t149 -72.5q92 0 145.5 72.5t53.5 181.5q0 100 -49 166q-55 74 -150 74q-94 0 -148 -69.5 t-54 -170.5z" />
<glyph unicode="&#xbb;" horiz-adv-x="1363" d="M197 123l340 326l-340 325h159l353 -325l-353 -326h-159zM651 123l340 326l-340 325h160l352 -325l-352 -326h-160z" />
<glyph unicode="&#xbc;" horiz-adv-x="817" d="M0 471v82h817v-82h-817zM57 -373l400 600h141v-602h156v-94h-156v-238h-121v238h-420v96zM152 1573v90q88 0 168.5 22.5t132.5 71.5h30v-860h197v-90h-520v90h198v711q-35 -16 -90 -25.5t-116 -9.5zM180 -375h305v541q-29 -115 -305 -541z" />
<glyph unicode="&#xbd;" horiz-adv-x="817" d="M0 471v82h817v-82h-817zM78 29q35 92 92 143q82 72 215 72q158 0 252 -92q84 -82 84 -203q0 -94 -66 -172q-43 -53 -161 -139q-80 -59 -172 -136q-61 -51 -121 -102h520v-107h-631v99q100 92 156 139q2 2 129 107q217 180 217 311q0 88 -66.5 142t-158.5 54 q-98 0 -156 -63q-43 -47 -66 -135zM152 1573v90q88 0 168.5 22.5t132.5 71.5h30v-860h197v-90h-520v90h198v711q-35 -16 -90 -25.5t-116 -9.5z" />
<glyph unicode="&#xbe;" horiz-adv-x="817" d="M0 471v82h817v-82h-817zM57 -373l400 600h141v-602h156v-94h-156v-238h-121v238h-420v96zM78 932l16 94q59 -72 143.5 -106.5t163.5 -34.5q74 0 131.5 51t57.5 137q0 90 -57.5 141.5t-137.5 51.5h-121v96q27 0 55.5 1t65.5 7q66 12 114 58.5t48 115.5q0 55 -42 89 t-112 34q-82 0 -148.5 -40t-96.5 -105l-60 82q37 53 105 96q92 57 200 57q106 0 189 -53q94 -61 94 -160q0 -80 -49 -141q-41 -51 -113 -90q92 -33 144 -86q63 -66 63 -154q0 -127 -106 -209q-96 -74 -224 -73q-98 0 -186 40.5t-137 100.5zM180 -375h305v541 q-29 -115 -305 -541z" />
<glyph unicode="&#xbf;" horiz-adv-x="966" d="M117 -100q0 100 39 170q23 41 81 99t103 167.5t45 208.5v133h137v-133q0 -129 -55 -271q-47 -119 -96 -171t-73 -101t-24 -102q0 -119 60 -164q41 -31 125 -31q86 0 176 32t166 89l45 -133q-72 -49 -176.5 -81t-210.5 -32q-195 0 -281 113q-61 80 -61 207zM369 877v170 h170v-170h-170z" />
<glyph unicode="&#xc0;" horiz-adv-x="1366" d="M57 0l535 1421h182l535 -1421h-189l-157 420h-594l-160 -420h-152zM342 1943h164l264 -342h-123zM410 535h510q-78 215 -136 376q-88 246 -114 365q-29 -102 -54 -174q-6 -16 -79 -219q-102 -283 -127 -348z" />
<glyph unicode="&#xc1;" horiz-adv-x="1366" d="M57 0l535 1421h182l535 -1421h-189l-157 420h-594l-160 -420h-152zM410 535h510q-78 215 -136 376q-88 246 -114 365q-29 -102 -54 -174q-6 -16 -79 -219q-102 -283 -127 -348zM588 1601l266 342h162l-305 -342h-123z" />
<glyph unicode="&#xc2;" horiz-adv-x="1366" d="M57 0l535 1421h182l535 -1421h-189l-157 420h-594l-160 -420h-152zM330 1601l286 342h132l286 -342h-125l-227 252l-227 -252h-125zM410 535h510q-78 215 -136 376q-88 246 -114 365q-29 -102 -54 -174q-6 -16 -79 -219q-102 -283 -127 -348z" />
<glyph unicode="&#xc3;" horiz-adv-x="1366" d="M57 0l535 1421h182l535 -1421h-189l-157 420h-594l-160 -420h-152zM344 1669q0 115 60.5 177t140.5 62q37 0 86 -27.5t65 -37.5q59 -37 64 -39q27 -12 53 -12q37 0 57.5 33.5t20.5 82.5h121q0 -98 -55.5 -168.5t-143.5 -70.5q-39 0 -74 18q-37 25 -55 37q-61 39 -68 41 q-45 25 -71 25q-43 0 -61.5 -40t-18.5 -81h-121zM410 535h510q-78 215 -136 376q-88 246 -114 365q-29 -102 -54 -174q-6 -16 -79 -219q-102 -283 -127 -348z" />
<glyph unicode="&#xc4;" horiz-adv-x="1366" d="M57 0l535 1421h182l535 -1421h-189l-157 420h-594l-160 -420h-152zM399 1749v170h170v-170h-170zM410 535h510q-78 215 -136 376q-88 246 -114 365q-29 -102 -54 -174q-6 -16 -79 -219q-102 -283 -127 -348zM795 1749v170h170v-170h-170z" />
<glyph unicode="&#xc5;" horiz-adv-x="1366" d="M57 0l535 1421h182l535 -1421h-189l-157 420h-594l-160 -420h-152zM410 535h510q-78 215 -136 376q-88 246 -114 365q-29 -102 -54 -174q-6 -16 -79 -219q-102 -283 -127 -348zM453 1665q0 63 49 111q63 59 180 59q115 0 176 -57q51 -47 51 -113t-49 -112 q-61 -59 -178 -60q-115 0 -178 60q-51 49 -51 112zM567 1665q0 -86 115 -86q113 0 113 86t-113 86q-115 0 -115 -86z" />
<glyph unicode="&#xc6;" horiz-adv-x="1763" d="M59 0l576 1421h1005v-135l-610 6v-489h553v-123h-553v-537l639 7v-150h-813v453h-461l-182 -453h-154zM442 567h414v725h-119z" />
<glyph unicode="&#xc7;" horiz-adv-x="1308" d="M135 711q0 309 187.5 532t480.5 223q94 0 183 -14t192 -59l-31 -170q-92 61 -170 84.5t-174 23.5q-219 0 -359 -194q-129 -180 -129 -426q0 -227 113 -404q137 -217 381 -217q127 0 205 31q47 18 170 98l14 -145q-94 -68 -187 -93.5t-204 -25.5q-293 0 -488 231 q-184 219 -184 525zM592 -416l150 348h124l-133 -348h-141z" />
<glyph unicode="&#xc8;" horiz-adv-x="1222" d="M193 0v1415h913v-135l-731 4v-487h674v-123h-674v-529l760 5v-150h-942zM309 1943h164l264 -342h-123z" />
<glyph unicode="&#xc9;" horiz-adv-x="1222" d="M193 0v1415h913v-135l-731 4v-487h674v-123h-674v-529l760 5v-150h-942zM555 1601l266 342h162l-305 -342h-123z" />
<glyph unicode="&#xca;" horiz-adv-x="1222" d="M193 0v1415h913v-135l-731 4v-487h674v-123h-674v-529l760 5v-150h-942zM297 1601l286 342h132l286 -342h-125l-227 252l-227 -252h-125z" />
<glyph unicode="&#xcb;" horiz-adv-x="1222" d="M193 0v1415h913v-135l-731 4v-487h674v-123h-674v-529l760 5v-150h-942zM366 1749v170h170v-170h-170zM762 1749v170h170v-170h-170z" />
<glyph unicode="&#xcc;" horiz-adv-x="569" d="M-55 1943h164l264 -342h-123zM193 0v1421h186v-1421h-186z" />
<glyph unicode="&#xcd;" horiz-adv-x="569" d="M191 1601l266 342h162l-305 -342h-123zM193 0v1421h186v-1421h-186z" />
<glyph unicode="&#xce;" horiz-adv-x="569" d="M-67 1601l286 342h132l286 -342h-125l-227 252l-227 -252h-125zM193 0v1421h186v-1421h-186z" />
<glyph unicode="&#xcf;" horiz-adv-x="569" d="M2 1749v170h170v-170h-170zM193 0v1421h186v-1421h-186zM398 1749v170h170v-170h-170z" />
<glyph unicode="&#xd0;" horiz-adv-x="1478" d="M0 641v119h197v661h551q233 0 415 -192q199 -210 199 -529q0 -309 -199 -514q-182 -186 -415 -186h-551v641h-197zM373 117h336q166 0 301 125q176 163 176 458q0 301 -172 471q-137 135 -305 136h-336v-547h375v-119h-375v-524z" />
<glyph unicode="&#xd1;" horiz-adv-x="1449" d="M197 0v1421h252q141 -285 284 -569q96 -193 232 -463q109 -219 120 -246l2 1278h152v-1421h-252q-309 616 -459 920q-139 281 -174 358l-4 -1278h-153zM379 1669q0 115 60.5 177t140.5 62q37 0 86 -27.5t65 -37.5q59 -37 64 -39q27 -12 53 -12q37 0 57.5 33.5t20.5 82.5 h121q0 -98 -55.5 -168.5t-143.5 -70.5q-39 0 -74 18q-37 25 -55 37q-61 39 -68 41q-45 25 -71 25q-43 0 -61.5 -40t-18.5 -81h-121z" />
<glyph unicode="&#xd2;" horiz-adv-x="1507" d="M115 705q0 334 194 552q184 209 441 209q262 0 447 -221t185 -540q0 -322 -196 -541q-186 -209 -436 -209q-258 0 -443 209q-193 217 -192 541zM291 735q0 -274 134 -459.5t325 -185.5q188 0 320 184.5t132 460.5q0 268 -137 439q-129 162 -315 161q-184 0 -318 -161 q-141 -172 -141 -439zM410 1943h164l264 -342h-123z" />
<glyph unicode="&#xd3;" horiz-adv-x="1507" d="M115 705q0 334 194 552q184 209 441 209q262 0 447 -221t185 -540q0 -322 -196 -541q-186 -209 -436 -209q-258 0 -443 209q-193 217 -192 541zM291 735q0 -274 134 -459.5t325 -185.5q188 0 320 184.5t132 460.5q0 268 -137 439q-129 162 -315 161q-184 0 -318 -161 q-141 -172 -141 -439zM656 1601l266 342h162l-305 -342h-123z" />
<glyph unicode="&#xd4;" horiz-adv-x="1507" d="M115 705q0 334 194 552q184 209 441 209q262 0 447 -221t185 -540q0 -322 -196 -541q-186 -209 -436 -209q-258 0 -443 209q-193 217 -192 541zM291 735q0 -274 134 -459.5t325 -185.5q188 0 320 184.5t132 460.5q0 268 -137 439q-129 162 -315 161q-184 0 -318 -161 q-141 -172 -141 -439zM398 1601l286 342h132l286 -342h-125l-227 252l-227 -252h-125z" />
<glyph unicode="&#xd5;" horiz-adv-x="1507" d="M115 705q0 334 194 552q184 209 441 209q262 0 447 -221t185 -540q0 -322 -196 -541q-186 -209 -436 -209q-258 0 -443 209q-193 217 -192 541zM291 735q0 -274 134 -459.5t325 -185.5q188 0 320 184.5t132 460.5q0 268 -137 439q-129 162 -315 161q-184 0 -318 -161 q-141 -172 -141 -439zM412 1669q0 115 60.5 177t140.5 62q37 0 86 -27.5t65 -37.5q59 -37 64 -39q27 -12 53 -12q37 0 57.5 33.5t20.5 82.5h121q0 -98 -55.5 -168.5t-143.5 -70.5q-39 0 -74 18q-37 25 -55 37q-61 39 -68 41q-45 25 -71 25q-43 0 -61.5 -40t-18.5 -81h-121z " />
<glyph unicode="&#xd6;" horiz-adv-x="1507" d="M115 705q0 334 194 552q184 209 441 209q262 0 447 -221t185 -540q0 -322 -196 -541q-186 -209 -436 -209q-258 0 -443 209q-193 217 -192 541zM291 735q0 -274 134 -459.5t325 -185.5q188 0 320 184.5t132 460.5q0 268 -137 439q-129 162 -315 161q-184 0 -318 -161 q-141 -172 -141 -439zM467 1749v170h170v-170h-170zM863 1749v170h170v-170h-170z" />
<glyph unicode="&#xd7;" horiz-adv-x="1593" d="M303 61q0 14 12 27l424 424l-424 426q-12 12 -12 27q0 18 12.5 30.5t30.5 12.5q14 0 27 -13l424 -426l424 424q12 12 26 13q18 0 30.5 -12.5t12.5 -30.5q0 -14 -12 -27l-424 -424l424 -424q12 -13 12 -27q0 -18 -12 -30.5t-31 -12.5q-14 0 -26 13l-424 424l-424 -424 q-12 -12 -27 -13q-18 0 -30.5 12.5t-12.5 30.5z" />
<glyph unicode="&#xd8;" horiz-adv-x="1593" d="M117 705q0 332 209 552q199 209 467 209q158 0 303 -82l96 170l115 -65l-103 -180q121 -104 192.5 -259t71.5 -345q0 -326 -206 -543q-197 -207 -469 -207q-158 0 -306 80l-94 -168l-114 65l100 179q-119 100 -190.5 254.5t-71.5 339.5zM291 705q0 -150 42 -266.5 t118 -200.5l581 1032q-113 72 -239 71q-201 0 -344 -163q-158 -180 -158 -473zM553 150q115 -70 240 -70q207 0 348 162q153 176 153 463q0 147 -44 270t-117 207z" />
<glyph unicode="&#xd9;" horiz-adv-x="1409" d="M193 434v987h180v-987q0 -117 67 -221q92 -141 265 -141q172 0 264 137q72 106 71 225v987h164v-987q0 -162 -129 -309q-150 -170 -370 -170q-227 0 -379 168q-133 147 -133 311zM358 1943h164l264 -342h-123z" />
<glyph unicode="&#xda;" horiz-adv-x="1409" d="M193 434v987h180v-987q0 -117 67 -221q92 -141 265 -141q172 0 264 137q72 106 71 225v987h164v-987q0 -162 -129 -309q-150 -170 -370 -170q-227 0 -379 168q-133 147 -133 311zM604 1601l266 342h162l-305 -342h-123z" />
<glyph unicode="&#xdb;" horiz-adv-x="1409" d="M193 434v987h180v-987q0 -117 67 -221q92 -141 265 -141q172 0 264 137q72 106 71 225v987h164v-987q0 -162 -129 -309q-150 -170 -370 -170q-227 0 -379 168q-133 147 -133 311zM346 1601l286 342h132l286 -342h-125l-227 252l-227 -252h-125z" />
<glyph unicode="&#xdc;" horiz-adv-x="1409" d="M193 434v987h180v-987q0 -117 67 -221q92 -141 265 -141q172 0 264 137q72 106 71 225v987h164v-987q0 -162 -129 -309q-150 -170 -370 -170q-227 0 -379 168q-133 147 -133 311zM415 1749v170h170v-170h-170zM811 1749v170h170v-170h-170z" />
<glyph unicode="&#xdd;" horiz-adv-x="1366" d="M8 1421h211l477 -700l482 700h182l-590 -848v-573h-178v573zM590 1601l266 342h162l-305 -342h-123z" />
<glyph unicode="&#xde;" horiz-adv-x="1196" d="M203 0v1421h166v-258h286q164 0 285 -104q133 -115 133 -295q0 -174 -137 -291q-123 -104 -279 -104h-288v-369h-166zM369 483h237q115 0 205 74q100 82 100 207t-100 205t-240 80h-202v-566z" />
<glyph unicode="&#xdf;" horiz-adv-x="985" d="M166 0v1153q0 113 97 202t251 89t254 -94q94 -88 94 -205q0 -96 -54 -174t-138 -127q100 -61 170 -182q80 -139 80 -295q0 -168 -104.5 -279t-256.5 -111q-92 0 -178 27l43 121q61 -23 135 -23q78 0 133 58q68 70 68 207q0 188 -95.5 303.5t-228.5 115.5v123 q106 0 182 60q84 66 84 176q0 72 -49 123t-139 51q-92 0 -143.5 -49t-51.5 -119v-1151h-153z" />
<glyph unicode="&#xe0;" horiz-adv-x="985" d="M90 231q0 131 159 203t400 72v88q0 121 -59 180q-47 47 -115 47q-162 0 -307 -104l-14 139q72 45 154.5 66.5t166.5 21.5q133 0 223 -80q109 -96 109 -270v-594h-152v68q-47 -41 -145 -66t-180 -25q-121 0 -187 89q-53 72 -53 165zM135 1421h164l264 -342h-123zM236 231 q0 -57 60 -92t132 -35q109 0 165 40t56 112v143q-195 0 -304 -42t-109 -126z" />
<glyph unicode="&#xe1;" horiz-adv-x="985" d="M90 231q0 131 159 203t400 72v88q0 121 -59 180q-47 47 -115 47q-162 0 -307 -104l-14 139q72 45 154.5 66.5t166.5 21.5q133 0 223 -80q109 -96 109 -270v-594h-152v68q-47 -41 -145 -66t-180 -25q-121 0 -187 89q-53 72 -53 165zM236 231q0 -57 60 -92t132 -35 q109 0 165 40t56 112v143q-195 0 -304 -42t-109 -126zM381 1079l266 342h162l-305 -342h-123z" />
<glyph unicode="&#xe2;" horiz-adv-x="985" d="M90 231q0 131 159 203t400 72v88q0 121 -59 180q-47 47 -115 47q-162 0 -307 -104l-14 139q72 45 154.5 66.5t166.5 21.5q133 0 223 -80q109 -96 109 -270v-594h-152v68q-47 -41 -145 -66t-180 -25q-121 0 -187 89q-53 72 -53 165zM123 1079l286 342h132l286 -342h-125 l-227 252l-227 -252h-125zM236 231q0 -57 60 -92t132 -35q109 0 165 40t56 112v143q-195 0 -304 -42t-109 -126z" />
<glyph unicode="&#xe3;" horiz-adv-x="985" d="M90 231q0 131 159 203t400 72v88q0 121 -59 180q-47 47 -115 47q-162 0 -307 -104l-14 139q72 45 154.5 66.5t166.5 21.5q133 0 223 -80q109 -96 109 -270v-594h-152v68q-47 -41 -145 -66t-180 -25q-121 0 -187 89q-53 72 -53 165zM139 1147q0 115 60.5 177t140.5 62 q37 0 86 -27.5t65 -37.5q59 -37 64 -39q27 -12 53 -12q37 0 57.5 33.5t20.5 82.5h121q0 -98 -55.5 -168.5t-143.5 -70.5q-39 0 -74 18q-37 25 -55 37q-61 39 -68 41q-45 25 -71 25q-43 0 -61.5 -40t-18.5 -81h-121zM236 231q0 -57 60 -92t132 -35q109 0 165 40t56 112v143 q-195 0 -304 -42t-109 -126z" />
<glyph unicode="&#xe4;" horiz-adv-x="985" d="M90 231q0 131 159 203t400 72v88q0 121 -59 180q-47 47 -115 47q-162 0 -307 -104l-14 139q72 45 154.5 66.5t166.5 21.5q133 0 223 -80q109 -96 109 -270v-594h-152v68q-47 -41 -145 -66t-180 -25q-121 0 -187 89q-53 72 -53 165zM192 1227v170h170v-170h-170zM236 231 q0 -57 60 -92t132 -35q109 0 165 40t56 112v143q-195 0 -304 -42t-109 -126zM588 1227v170h170v-170h-170z" />
<glyph unicode="&#xe5;" horiz-adv-x="985" d="M90 231q0 131 159 203t400 72v88q0 121 -59 180q-47 47 -115 47q-162 0 -307 -104l-14 139q72 45 154.5 66.5t166.5 21.5q133 0 223 -80q109 -96 109 -270v-594h-152v68q-47 -41 -145 -66t-180 -25q-121 0 -187 89q-53 72 -53 165zM236 231q0 -57 60 -92t132 -35 q109 0 165 40t56 112v143q-195 0 -304 -42t-109 -126zM267 1196q0 63 49 111q63 59 180 59q115 0 176 -57q51 -47 51 -113t-49 -112q-61 -59 -178 -60q-115 0 -178 60q-51 49 -51 112zM381 1196q0 -86 115 -86q113 0 113 86t-113 86q-115 0 -115 -86z" />
<glyph unicode="&#xe6;" horiz-adv-x="1478" d="M100 231q0 133 158 205t401 72v86q0 121 -59 180q-47 47 -115 47q-168 0 -315 -106l-14 139q70 43 158.5 66.5t170.5 23.5q80 0 159 -41t124 -117q55 74 137 116t180 42q125 0 209 -86q123 -126 123 -405h-600q0 -139 88 -244t211 -105q63 0 131 23q84 29 146 86l14 -137 q-78 -51 -142.5 -75t-148.5 -24q-98 0 -185 40t-153 114q-49 -78 -188 -119q-117 -35 -250 -35q-121 0 -186 89q-53 72 -54 165zM246 231q0 -57 60.5 -92t131.5 -35q98 0 158 31q76 39 76 123q0 8 -4 55t-4 80q-197 0 -307.5 -40t-110.5 -122zM829 569h467q-23 137 -86 199 q-49 49 -125 49q-98 0 -167 -78q-59 -66 -89 -170z" />
<glyph unicode="&#xe7;" horiz-adv-x="909" d="M74 457q0 203 124 345t326 142q102 0 181 -26q51 -18 129 -66l-25 -135q-74 51 -136.5 73.5t-148.5 22.5q-139 0 -216 -104.5t-77 -251.5q0 -143 77 -245.5t208 -102.5q76 0 158 24.5t157 81.5l11 -141q-72 -43 -154 -70t-172 -27q-193 0 -317.5 139.5t-124.5 340.5z M301 -393l150 348h124l-133 -348h-141z" />
<glyph unicode="&#xe8;" horiz-adv-x="909" d="M70 465q0 186 104 323q119 156 307 156q195 0 289 -168q72 -128 72 -323h-633q0 -143 88 -246t215 -103q63 0 143 25q100 31 160 84l14 -137q-70 -43 -151.5 -71t-165.5 -28q-195 0 -318.5 145.5t-123.5 342.5zM141 1421h164l264 -342h-123zM223 569h500q-14 102 -72 170 q-66 78 -170 78q-100 0 -170 -78q-59 -66 -88 -170z" />
<glyph unicode="&#xe9;" horiz-adv-x="909" d="M70 465q0 186 104 323q119 156 307 156q195 0 289 -168q72 -128 72 -323h-633q0 -143 88 -246t215 -103q63 0 143 25q100 31 160 84l14 -137q-70 -43 -151.5 -71t-165.5 -28q-195 0 -318.5 145.5t-123.5 342.5zM223 569h500q-14 102 -72 170q-66 78 -170 78 q-100 0 -170 -78q-59 -66 -88 -170zM387 1079l266 342h162l-305 -342h-123z" />
<glyph unicode="&#xea;" horiz-adv-x="909" d="M70 465q0 186 104 323q119 156 307 156q195 0 289 -168q72 -128 72 -323h-633q0 -143 88 -246t215 -103q63 0 143 25q100 31 160 84l14 -137q-70 -43 -151.5 -71t-165.5 -28q-195 0 -318.5 145.5t-123.5 342.5zM129 1079l286 342h132l286 -342h-125l-227 252l-227 -252 h-125zM223 569h500q-14 102 -72 170q-66 78 -170 78q-100 0 -170 -78q-59 -66 -88 -170z" />
<glyph unicode="&#xeb;" horiz-adv-x="909" d="M70 465q0 186 104 323q119 156 307 156q195 0 289 -168q72 -128 72 -323h-633q0 -143 88 -246t215 -103q63 0 143 25q100 31 160 84l14 -137q-70 -43 -151.5 -71t-165.5 -28q-195 0 -318.5 145.5t-123.5 342.5zM198 1227v170h170v-170h-170zM223 569h500q-14 102 -72 170 q-66 78 -170 78q-100 0 -170 -78q-59 -66 -88 -170zM594 1227v170h170v-170h-170z" />
<glyph unicode="&#xec;" horiz-adv-x="489" d="M-94 1421h164l264 -342h-123zM166 0v909h160v-909h-160z" />
<glyph unicode="&#xed;" horiz-adv-x="489" d="M152 1079l266 342h162l-305 -342h-123zM166 0v909h160v-909h-160zM166 0v909h160v-909h-160z" />
<glyph unicode="&#xee;" horiz-adv-x="489" d="M-106 1079l286 342h132l286 -342h-125l-227 252l-227 -252h-125zM166 0v909h160v-909h-160z" />
<glyph unicode="&#xef;" horiz-adv-x="489" d="M-37 1227v170h170v-170h-170zM166 0v909h160v-909h-160zM359 1227v170h170v-170h-170z" />
<glyph unicode="&#xf0;" horiz-adv-x="1058" d="M63 440q0 203 128 346.5t319 143.5q78 0 155.5 -34t137.5 -89q-84 254 -287 389l-53 -98l-105 57l54 98q-139 61 -287 62l37 106q84 0 153.5 -14t147.5 -53l55 102l105 -55l-56 -105q82 -53 154 -133q82 -90 135 -198q45 -92 71.5 -194.5t26.5 -215.5v-133 q0 -84 -36.5 -168t-98.5 -145q-127 -131 -311 -132q-184 0 -314.5 136.5t-130.5 326.5zM221 463q0 -154 77 -255.5t212 -101.5t213 109q72 101 72 248q0 156 -79 249t-206 93q-131 0 -210 -97.5t-79 -244.5z" />
<glyph unicode="&#xf1;" horiz-adv-x="1058" d="M164 0v932h145v-154q66 80 119 111q72 43 178 43q133 0 206 -73t73 -224v-635h-162v625q0 84 -43 131q-49 53 -150 53q-100 0 -157 -90q-49 -78 -49 -189v-530h-160zM186 1147q0 115 60.5 177t140.5 62q37 0 86 -27.5t65 -37.5q59 -37 64 -39q27 -12 53 -12 q37 0 57.5 33.5t20.5 82.5h121q0 -98 -55.5 -168.5t-143.5 -70.5q-39 0 -74 18q-37 25 -55 37q-61 39 -68 41q-45 25 -71 25q-43 0 -61.5 -40t-18.5 -81h-121z" />
<glyph unicode="&#xf2;" d="M66 453q0 199 120 340q129 152 326 151q195 0 324 -151q120 -141 120 -340q0 -195 -127 -335.5t-317 -140.5q-188 0 -317 141.5t-129 334.5zM172 1421h164l264 -342h-123zM223 475q0 -156 77 -260t212 -104q133 0 209 105t76 259q0 141 -72 238q-78 104 -213 104 t-212 -100.5t-77 -241.5z" />
<glyph unicode="&#xf3;" d="M66 453q0 199 120 340q129 152 326 151q195 0 324 -151q120 -141 120 -340q0 -195 -127 -335.5t-317 -140.5q-188 0 -317 141.5t-129 334.5zM223 475q0 -156 77 -260t212 -104q133 0 209 105t76 259q0 141 -72 238q-78 104 -213 104t-212 -100.5t-77 -241.5zM418 1079 l266 342h162l-305 -342h-123z" />
<glyph unicode="&#xf4;" d="M66 453q0 199 120 340q129 152 326 151q195 0 324 -151q120 -141 120 -340q0 -195 -127 -335.5t-317 -140.5q-188 0 -317 141.5t-129 334.5zM160 1079l286 342h132l286 -342h-125l-227 252l-227 -252h-125zM223 475q0 -156 77 -260t212 -104q133 0 209 105t76 259 q0 141 -72 238q-78 104 -213 104t-212 -100.5t-77 -241.5z" />
<glyph unicode="&#xf5;" d="M66 453q0 199 120 340q129 152 326 151q195 0 324 -151q120 -141 120 -340q0 -195 -127 -335.5t-317 -140.5q-188 0 -317 141.5t-129 334.5zM174 1147q0 115 60.5 177t140.5 62q37 0 86 -27.5t65 -37.5q59 -37 64 -39q27 -12 53 -12q37 0 57.5 33.5t20.5 82.5h121 q0 -98 -55.5 -168.5t-143.5 -70.5q-39 0 -74 18q-37 25 -55 37q-61 39 -68 41q-45 25 -71 25q-43 0 -61.5 -40t-18.5 -81h-121zM223 475q0 -156 77 -260t212 -104q133 0 209 105t76 259q0 141 -72 238q-78 104 -213 104t-212 -100.5t-77 -241.5z" />
<glyph unicode="&#xf6;" d="M66 453q0 199 120 340q129 152 326 151q195 0 324 -151q120 -141 120 -340q0 -195 -127 -335.5t-317 -140.5q-188 0 -317 141.5t-129 334.5zM223 475q0 -156 77 -260t212 -104q133 0 209 105t76 259q0 141 -72 238q-78 104 -213 104t-212 -100.5t-77 -241.5zM229 1227 v170h170v-170h-170zM625 1227v170h170v-170h-170z" />
<glyph unicode="&#xf7;" horiz-adv-x="1593" d="M115 512q0 41 41 41h1282q41 0 41 -41t-41 -41h-1282q-41 0 -41 41zM670 -27v170q0 10 13 25.5t28 15.5h172q41 0 41 -41v-170q0 -10 -13.5 -25.5t-27.5 -15.5h-172q-10 0 -25.5 13.5t-15.5 27.5zM670 881v170q0 10 13 25.5t28 15.5h172q41 0 41 -41v-170 q0 -10 -13.5 -25.5t-27.5 -15.5h-172q-10 0 -25.5 13t-15.5 28z" />
<glyph unicode="&#xf8;" d="M68 453q0 199 118 340q127 152 324 151q43 0 88 -10t84 -27l125 232l111 -62l-132 -241q164 -145 164 -383q0 -195 -126 -335.5t-314 -140.5q-90 0 -172 35l-131 -241l-111 61l135 248q-78 68 -120.5 164t-42.5 209zM217 453q0 -154 80 -252l324 594q-49 25 -111 24 q-135 0 -214 -104.5t-79 -261.5zM399 125q55 -20 111 -21q133 0 212 99.5t79 249.5q0 158 -80 262z" />
<glyph unicode="&#xf9;" horiz-adv-x="1058" d="M166 205v704h162v-704q0 -68 37.5 -92.5t119.5 -24.5q96 0 169 56.5t73 140.5v624h158v-909h-152v98q-59 -59 -158.5 -90t-189.5 -31q-219 0 -219 228zM184 1421h164l264 -342h-123z" />
<glyph unicode="&#xfa;" horiz-adv-x="1058" d="M166 205v704h162v-704q0 -68 37.5 -92.5t119.5 -24.5q96 0 169 56.5t73 140.5v624h158v-909h-152v98q-59 -59 -158.5 -90t-189.5 -31q-219 0 -219 228zM418 1079l266 342h162l-305 -342h-123z" />
<glyph unicode="&#xfb;" horiz-adv-x="1058" d="M166 205v704h162v-704q0 -68 37.5 -92.5t119.5 -24.5q96 0 169 56.5t73 140.5v624h158v-909h-152v98q-59 -59 -158.5 -90t-189.5 -31q-219 0 -219 228zM172 1079l286 342h132l286 -342h-125l-227 252l-227 -252h-125z" />
<glyph unicode="&#xfc;" horiz-adv-x="1058" d="M166 205v704h162v-704q0 -68 37.5 -92.5t119.5 -24.5q96 0 169 56.5t73 140.5v624h158v-909h-152v98q-59 -59 -158.5 -90t-189.5 -31q-219 0 -219 228zM241 1227v170h170v-170h-170zM637 1227v170h170v-170h-170z" />
<glyph unicode="&#xfd;" horiz-adv-x="944" d="M29 909h159q147 -342 168 -391q74 -178 103.5 -267t29.5 -153q0 61 28 157.5t91 258.5q41 109 158 395h154l-435 -1065q-57 -143 -113.5 -203.5t-138.5 -60.5q-70 0 -147 17l-14 143q61 -29 92 -37t69 -8q47 0 82 45q27 33 54 104q14 35 22 54q25 59 37 98zM379 1079 l266 342h162l-305 -342h-123z" />
<glyph unicode="&#xfe;" horiz-adv-x="1058" d="M164 -397v1818h155v-616q63 53 147.5 84t178.5 31q150 0 244 -148q86 -133 86 -317q0 -203 -111.5 -335t-259.5 -132q-88 0 -168 39q-59 29 -112 77v-501h-160zM324 240q37 -59 77 -90q53 -39 121 -39q123 0 205 86q90 94 90 258q0 160 -74.5 251t-199.5 91 q-74 0 -126 -30t-93 -89v-438z" />
<glyph unicode="&#xff;" horiz-adv-x="944" d="M29 909h159q147 -342 168 -391q74 -178 103.5 -267t29.5 -153q0 61 28 157.5t91 258.5q41 109 158 395h154l-435 -1065q-57 -143 -113.5 -203.5t-138.5 -60.5q-70 0 -147 17l-14 143q61 -29 92 -37t69 -8q47 0 82 45q27 33 54 104q14 35 22 54q25 59 37 98zM190 1227v170 h170v-170h-170zM586 1227v170h170v-170h-170z" />
<glyph unicode="&#x152;" horiz-adv-x="1990" d="M59 705q0 330 202 545.5t478 215.5q35 0 63.5 -4t75 -14t87.5 -18.5t86 -8.5h815v-139l-725 6v-485h667v-125h-667v-533l753 7v-152h-845q-49 0 -86 -6q-51 -12 -77 -17.5t-62 -13.5t-85 -8q-279 0 -475 209q-205 217 -205 541zM236 735q0 -276 148 -465.5t355 -189.5 q150 0 191 82q35 67 35 305v487q0 238 -35 306q-41 82 -191 81q-201 0 -348 -163q-156 -174 -155 -443z" />
<glyph unicode="&#x153;" horiz-adv-x="1593" d="M63 453q0 201 120 346t311 145q111 0 201.5 -55t152.5 -152q53 96 142 151.5t200 55.5q125 0 209 -86q123 -126 123 -405h-596q0 -139 86 -244t209 -105q63 0 131 23q84 29 145 86l14 -137q-78 -51 -142 -75t-148 -24q-119 0 -215.5 55.5t-155.5 155.5 q-59 -96 -151.5 -153.5t-204.5 -57.5q-180 0 -305.5 141.5t-125.5 334.5zM209 475q0 -158 74.5 -265.5t210.5 -107.5q129 0 204 113q70 104 70 260q0 143 -68 238q-76 104 -206 104q-133 0 -213 -104q-72 -94 -72 -238zM938 569h463q-23 137 -86 199q-49 49 -125 49 q-96 0 -166 -78q-57 -66 -86 -170z" />
<glyph unicode="&#x178;" horiz-adv-x="1366" d="M8 1421h211l477 -700l482 700h182l-590 -848v-573h-178v573zM401 1749v170h170v-170h-170zM401 1749v170h170v-170h-170zM797 1749v170h170v-170h-170zM797 1749v170h170v-170h-170z" />
<glyph unicode="&#x2c6;" d="M160 1079l286 342h132l286 -342h-125l-227 252l-227 -252h-125z" />
<glyph unicode="&#x2dc;" d="M174 1147q0 115 60.5 177t140.5 62q37 0 86 -27.5t65 -37.5q59 -37 64 -39q27 -12 53 -12q37 0 57.5 33.5t20.5 82.5h121q0 -98 -55.5 -168.5t-143.5 -70.5q-39 0 -74 18q-37 25 -55 37q-61 39 -68 41q-45 25 -71 25q-43 0 -61.5 -40t-18.5 -81h-121z" />
<glyph unicode="&#x2000;" horiz-adv-x="971" />
<glyph unicode="&#x2001;" horiz-adv-x="1943" />
<glyph unicode="&#x2002;" horiz-adv-x="971" />
<glyph unicode="&#x2003;" horiz-adv-x="1943" />
<glyph unicode="&#x2004;" horiz-adv-x="647" />
<glyph unicode="&#x2005;" horiz-adv-x="485" />
<glyph unicode="&#x2006;" horiz-adv-x="323" />
<glyph unicode="&#x2007;" horiz-adv-x="323" />
<glyph unicode="&#x2008;" horiz-adv-x="242" />
<glyph unicode="&#x2009;" horiz-adv-x="388" />
<glyph unicode="&#x200a;" horiz-adv-x="107" />
<glyph unicode="&#x2010;" horiz-adv-x="681" d="M25 393v119h528v-119h-528z" />
<glyph unicode="&#x2011;" horiz-adv-x="681" d="M25 393v119h528v-119h-528z" />
<glyph unicode="&#x2012;" horiz-adv-x="681" d="M25 393v119h528v-119h-528z" />
<glyph unicode="&#x2013;" d="M0 500v125h1024v-125h-1024z" />
<glyph unicode="&#x2014;" horiz-adv-x="2048" d="M0 500v125h2048v-125h-2048z" />
<glyph unicode="&#x2018;" horiz-adv-x="569" d="M201 995v170l86 256h86l-58 -256h56v-170h-170z" />
<glyph unicode="&#x2019;" horiz-adv-x="569" d="M199 995l57 256h-55v170h170v-170l-86 -256h-86z" />
<glyph unicode="&#x201a;" horiz-adv-x="569" d="M199 -256l57 256h-55v170h170v-170l-86 -256h-86z" />
<glyph unicode="&#x201c;" d="M389 995v170l86 256h86l-57 -256h55v-170h-170zM786 995v170l86 256h86l-57 -256h55v-170h-170z" />
<glyph unicode="&#x201d;" d="M66 995l57 256h-55v170h170v-170l-86 -256h-86zM463 995l57 256h-55v170h170v-170l-86 -256h-86z" />
<glyph unicode="&#x201e;" d="M66 -256l57 256h-55v170h170v-170l-86 -256h-86zM463 -256l57 256h-55v170h170v-170l-86 -256h-86z" />
<glyph unicode="&#x2022;" d="M115 512q0 164 116.5 280.5t280.5 116.5t280.5 -116.5t116.5 -280.5t-116.5 -280.5t-280.5 -116.5t-280.5 116.5t-116.5 280.5z" />
<glyph unicode="&#x2026;" horiz-adv-x="2048" d="M258 0v170h170v-170h-170zM940 0v170h170v-170h-170zM1622 0v170h170v-170h-170z" />
<glyph unicode="&#x202f;" horiz-adv-x="388" />
<glyph unicode="&#x2039;" horiz-adv-x="909" d="M193 449l352 325h160l-340 -325l340 -326h-160z" />
<glyph unicode="&#x203a;" horiz-adv-x="909" d="M197 123l340 326l-340 325h159l353 -325l-353 -326h-159z" />
<glyph unicode="&#x205f;" horiz-adv-x="485" />
<glyph unicode="&#x2122;" horiz-adv-x="1912" d="M45 1335v80h739v-80h-315v-766h-109v766h-315zM961 569v852h137q113 -299 180 -481q86 -231 90 -268q8 39 92 266q66 176 182 483h138v-852h-94v766q-4 -27 -52 -157q-31 -88 -104 -281q-59 -156 -119 -311h-88q-12 31 -115 309q-53 139 -104 281q-43 125 -49 159 l-2 -766h-92z" />
<glyph unicode="&#x25fc;" horiz-adv-x="911" d="M0 0v911h911v-911h-911z" />
</font>
</defs>
</svg>
