<?xml version="1.0" standalone="no"?>
<!DOCTYPE svg PUBLIC "-//W3C//DTD SVG 1.1//EN" "http://www.w3.org/Graphics/SVG/1.1/DTD/svg11.dtd" >
<svg xmlns="http://www.w3.org/2000/svg" xmlns:xlink="http://www.w3.org/1999/xlink" version="1.1">
<metadata>
Created by FontForge 20190801 at Fri Jul 30 16:17:25 2021
 By www-data
Copyright 2019 The Lexend Project Authors (https://github.com/googlefonts/lexend)
</metadata>
<defs>
<font id="LexendDecaMedium" horiz-adv-x="0" >
  <font-face 
    font-family="LexendDecaMedium"
    font-weight="500"
    font-stretch="normal"
    units-per-em="1000"
    panose-1="0 0 0 0 0 0 0 0 0 0"
    ascent="800"
    descent="-200"
    x-height="527"
    cap-height="700"
    bbox="-211 -261 1392 1104"
    underline-thickness="50"
    underline-position="-125"
    unicode-range="U+000D-FB02"
  />
<missing-glyph horiz-adv-x="584" 
d="M75 0q-35 0 -35 35v630q0 35 35 35h434q35 0 35 -35v-630q0 -35 -35 -35h-434zM75 30h413q3 0 4 2t-1 4l-415 599q-2 3 -4 2.5t-2 -4.5v-598q0 -5 5 -5zM508 65q2 -3 4 -2.5t2 4.5v598q0 5 -5 5h-414q-3 0 -4 -2t1 -4z" />
    <glyph glyph-name="fi" unicode="fi" horiz-adv-x="686" 
d="M120 0v574q0 48 21 85.5t58 59t86 21.5q34 0 63 -11.5t49 -31.5l-38 -93q-13 11 -27.5 17t-27.5 6q-20 0 -33.5 -6.5t-20 -19.5t-6.5 -31v-570h-62h-33.5h-28.5zM38 408v108h325v-108h-325zM479 0v527h123v-527h-123zM539 639q-37 0 -57.5 18.5t-20.5 52.5q0 32 21 52
t57 20q38 0 58.5 -18.5t20.5 -53.5q0 -31 -21 -51t-58 -20z" />
    <glyph glyph-name="fl" unicode="fl" horiz-adv-x="663" 
d="M120 0v574q0 48 21 85.5t58 59t86 21.5q34 0 63 -11.5t49 -31.5l-38 -93q-13 11 -27.5 17t-27.5 6q-20 0 -33.5 -6.5t-20 -19.5t-6.5 -31v-570h-62h-33.5h-28.5zM38 408v108h325v-108h-325zM466 0v740h124v-740h-124z" />
    <glyph glyph-name="f_f" unicode="ff" horiz-adv-x="786" 
d="M120 0v574q0 48 21 85.5t58 59t86 21.5q34 0 63 -11.5t49 -31.5l-38 -93q-13 11 -27.5 17t-27.5 6q-20 0 -33.5 -6.5t-20 -19.5t-6.5 -31v-570h-62h-33.5h-28.5zM38 408v108h325v-108h-325zM513 0v574q0 48 21 85.5t58 59t86 21.5q34 0 63 -11.5t49 -31.5l-38 -93
q-13 11 -27.5 17t-27.5 6q-20 0 -33.5 -6.5t-20 -19.5t-6.5 -31v-570h-62h-33.5h-28.5zM431 408v108h325v-108h-325z" />
    <glyph glyph-name="f_f_i" unicode="ffi" horiz-adv-x="1079" 
d="M120 0v574q0 48 21 85.5t58 59t86 21.5q34 0 63 -11.5t49 -31.5l-38 -93q-13 11 -27.5 17t-27.5 6q-20 0 -33.5 -6.5t-20 -19.5t-6.5 -31v-570h-62h-33.5h-28.5zM38 408v108h325v-108h-325zM513 0v574q0 48 21 85.5t58 59t86 21.5q34 0 63 -11.5t49 -31.5l-38 -93
q-13 11 -27.5 17t-27.5 6q-20 0 -33.5 -6.5t-20 -19.5t-6.5 -31v-570h-62h-33.5h-28.5zM431 408v108h325v-108h-325zM872 0v527h123v-527h-123zM932 639q-37 0 -57.5 18.5t-20.5 52.5q0 32 21 52t57 20q38 0 58.5 -18.5t20.5 -53.5q0 -31 -21 -51t-58 -20z" />
    <glyph glyph-name="f_f_l" unicode="ffl" horiz-adv-x="1056" 
d="M120 0v574q0 48 21 85.5t58 59t86 21.5q34 0 63 -11.5t49 -31.5l-38 -93q-13 11 -27.5 17t-27.5 6q-20 0 -33.5 -6.5t-20 -19.5t-6.5 -31v-570h-62h-33.5h-28.5zM38 408v108h325v-108h-325zM513 0v574q0 48 21 85.5t58 59t86 21.5q34 0 63 -11.5t49 -31.5l-38 -93
q-13 11 -27.5 17t-27.5 6q-20 0 -33.5 -6.5t-20 -19.5t-6.5 -31v-570h-62h-33.5h-28.5zM431 408v108h325v-108h-325zM859 0v740h124v-740h-124z" />
    <glyph glyph-name=".notdef" horiz-adv-x="584" 
d="M75 0q-35 0 -35 35v630q0 35 35 35h434q35 0 35 -35v-630q0 -35 -35 -35h-434zM75 30h413q3 0 4 2t-1 4l-415 599q-2 3 -4 2.5t-2 -4.5v-598q0 -5 5 -5zM508 65q2 -3 4 -2.5t2 4.5v598q0 5 -5 5h-414q-3 0 -4 -2t1 -4z" />
    <glyph glyph-name=".null" 
 />
    <glyph glyph-name="nonmarkingreturn" horiz-adv-x="333" 
 />
    <glyph glyph-name="CR" unicode="&#xd;" horiz-adv-x="277" 
 />
    <glyph glyph-name="space" unicode=" " horiz-adv-x="294" 
 />
    <glyph glyph-name="exclam" unicode="!" horiz-adv-x="262" 
d="M93 246q-7 62 -13.5 128.5t-10.5 132t-4 124.5v73h130v-73q0 -61 -3.5 -128t-10 -133t-14.5 -124h-74zM128 -11q-36 0 -55.5 21t-19.5 59q0 35 20.5 57.5t54.5 22.5q36 0 55.5 -20.5t19.5 -59.5q0 -35 -20.5 -57.5t-54.5 -22.5z" />
    <glyph glyph-name="quotedbl" unicode="&#x22;" horiz-adv-x="435" 
d="M254 440l23 260h133l-82 -260h-74zM40 440l22 260h134l-82 -260h-74z" />
    <glyph glyph-name="numbersign" unicode="#" horiz-adv-x="698" 
d="M367 0l120 700h109l-120 -700h-109zM37 165v99h587v-99h-587zM103 0l120 700h108l-120 -700h-108zM75 445v99h586v-99h-586z" />
    <glyph glyph-name="dollar" unicode="$" horiz-adv-x="628" 
d="M316 -10q-90 0 -158 33t-116 97l77 101q51 -66 99 -92t108 -26q34 0 62 10.5t44 29t16 42.5q0 17 -6.5 31.5t-19.5 26t-32 21.5t-43 17t-53 13q-74 15 -122.5 43.5t-72.5 71.5t-24 101q0 44 19.5 81t53.5 64t79 42t97 15q82 0 145 -29.5t104 -87.5l-74 -90
q-34 46 -78.5 69.5t-96.5 23.5q-36 0 -62.5 -10t-41.5 -28.5t-15 -44.5q0 -20 9 -35.5t25.5 -27.5t42.5 -21t59 -16q55 -11 99 -29.5t75 -44t47 -58t16 -72.5q0 -69 -32.5 -118.5t-91.5 -76t-138 -26.5zM256 -91l4 458l91 -33l4 -425h-99zM386 334l-91 33l-4 417h99z" />
    <glyph glyph-name="percent" unicode="%" horiz-adv-x="885" 
d="M144 0l463 700h119l-468 -700h-114zM201 329q-47 0 -83.5 25t-57 68t-20.5 98q0 56 20.5 99.5t57 68.5t84.5 25q47 0 83.5 -25t57 -68.5t20.5 -99.5q0 -54 -21 -97.5t-58 -68.5t-83 -25zM202 414q19 0 33 13t22 36.5t8 56.5t-8 57t-22 37t-34 13q-19 0 -33.5 -13.5
t-22.5 -37t-8 -56.5t7.5 -56.5t22.5 -36.5t35 -13zM676 -9q-47 0 -83.5 25t-57.5 68t-21 98q0 56 20.5 99.5t57.5 68.5t84 25q48 0 84 -25t56.5 -68.5t20.5 -99.5q0 -54 -21 -97.5t-57.5 -68.5t-82.5 -25zM676 75q19 0 33.5 13.5t22.5 37t8 56.5q0 32 -8 56t-22.5 37.5
t-33.5 13.5q-20 0 -34.5 -13t-22.5 -37.5t-8 -56.5q0 -33 8 -56.5t22.5 -37t34.5 -13.5z" />
    <glyph glyph-name="ampersand" unicode="&#x26;" horiz-adv-x="752" 
d="M577 0l-84 88l-32 32l-163 180q-30 32 -54.5 63.5t-41 60.5t-26 56t-9.5 51q0 52 27 93t75 64.5t111 23.5q47 0 88 -16.5t70.5 -46t42.5 -69.5l-95 -59q-18 45 -43 63.5t-61 18.5q-28 0 -47 -8.5t-29 -25t-10 -40.5q0 -21 14 -48t34.5 -55t42.5 -52t38 -42l117 -129
l43 -43l148 -160h-156zM313 -10q-73 0 -133 30.5t-95 81.5t-35 112q0 77 43 135t127 89l77 -84q-61 -14 -91.5 -44.5t-30.5 -81.5q0 -39 19 -68.5t54 -46t84 -16.5q43 0 79.5 17t65.5 48.5t48 75.5t26 97h113q-8 -62 -29.5 -115t-53 -95.5t-72.5 -72.5t-90 -46t-106 -16z
" />
    <glyph glyph-name="quotesingle" unicode="'" horiz-adv-x="221" 
d="M40 440l22 260h134l-82 -260h-74z" />
    <glyph glyph-name="parenleft" unicode="(" horiz-adv-x="374" 
d="M290 -186q-122 76 -186 190t-64 254q0 139 64.5 253.5t186.5 190.5l67 -70q-98 -68 -148.5 -165t-50.5 -209t50.5 -209t148.5 -165z" />
    <glyph glyph-name="parenright" unicode=")" horiz-adv-x="374" 
d="M83 -186l-67 70q98 68 149 165t51 209t-51 209t-149 165l68 70q122 -76 186 -190t64 -254q0 -139 -64.5 -253.5t-186.5 -190.5z" />
    <glyph glyph-name="asterisk" unicode="*" horiz-adv-x="406" 
d="M161 368l11 122l9 -1l-111 -75l-43 74l120 54l-1 -6l-120 57l43 74l113 -79l-10 1l-11 124h89l-11 -133l-11 7l110 78l42 -75l-122 -57v11l121 -55l-43 -74l-109 77l13 -2l10 -122h-89z" />
    <glyph glyph-name="plus" unicode="+" horiz-adv-x="593" 
d="M46 229v104h501v-104h-501zM237 41v485h118v-485h-118z" />
    <glyph glyph-name="comma" unicode="," horiz-adv-x="274" 
d="M87 -186l-41 49q37 20 59.5 46.5t22.5 45.5q0 10 -4.5 19.5t-21.5 25.5q-21 19 -28 33t-7 31q0 26 19 42t49 16q27 0 48.5 -15t33.5 -41.5t12 -61.5q0 -31 -10.5 -60.5t-30 -54.5t-45 -44.5t-56.5 -30.5z" />
    <glyph glyph-name="hyphen" unicode="-" horiz-adv-x="413" 
d="M52 227v118h309v-118h-309z" />
    <glyph glyph-name="period" unicode="." horiz-adv-x="238" 
d="M119 -11q-36 0 -55.5 21t-19.5 59q0 35 20.5 57.5t54.5 22.5q36 0 55.5 -20.5t19.5 -59.5q0 -35 -20.5 -57.5t-54.5 -22.5z" />
    <glyph glyph-name="slash" unicode="/" horiz-adv-x="570" 
d="M14 -135l414 835h120l-412 -835h-122z" />
    <glyph glyph-name="zero" unicode="0" horiz-adv-x="631" 
d="M315 -10q-85 0 -145.5 43.5t-93 124t-32.5 192.5t32.5 192.5t93 124t145.5 43.5t146 -43.5t93.5 -124t32.5 -192.5t-32.5 -192.5t-93.5 -124t-146 -43.5zM315 104q70 0 108.5 64.5t38.5 181.5q0 118 -38.5 183t-108.5 65t-108.5 -65t-38.5 -183q0 -117 38.5 -181.5
t108.5 -64.5z" />
    <glyph glyph-name="one" unicode="1" horiz-adv-x="522" 
d="M215 49v568l37 -48l-142 -72l-29 114l191 99h72v-661h-129zM98 0v120h366v-120h-366z" />
    <glyph glyph-name="two" unicode="2" horiz-adv-x="548" 
d="M81 0l-33 82l210 235q18 18 37 41.5t36.5 49t28.5 50t11 45.5q0 27 -11.5 47t-32.5 31t-52 11q-27 0 -52.5 -15.5t-47 -44t-35.5 -67.5l-98 58q18 58 54.5 100.5t86 65.5t107.5 23q60 0 107 -25t74.5 -69t27.5 -103q0 -22 -5 -45.5t-15.5 -49t-27.5 -53t-40.5 -57.5
t-53.5 -63l-159 -173l-20 46h346v-120h-443z" />
    <glyph glyph-name="three" unicode="3" horiz-adv-x="551" 
d="M264 -10q-78 0 -136 34.5t-107 117.5l98 62q23 -37 47.5 -59.5t50 -33t54.5 -10.5q33 0 60.5 16t44 44t16.5 64t-13.5 61t-39 38.5t-61.5 13.5q-16 0 -34 -3.5t-38 -10t-44 -15.5l-32 85l199 220l30 -29l-295 2v115h411l24 -48l-230 -251l-30 33q8 4 26.5 7.5t32.5 3.5
q44 0 84 -16.5t69.5 -46.5t46.5 -69.5t17 -85.5q0 -69 -33.5 -122.5t-90.5 -85t-127 -31.5z" />
    <glyph glyph-name="four" unicode="4" horiz-adv-x="635" 
d="M351 0v565l48 -5l-238 -291l-11 18h445v-113h-515l-54 104l348 424h102v-702h-125z" />
    <glyph glyph-name="five" unicode="5" horiz-adv-x="578" 
d="M266 -7q-73 0 -132 31.5t-98 91.5l72 78q44 -49 79 -67.5t77 -18.5q38 0 68 16.5t48 45t18 62.5q0 37 -17 65.5t-46 45.5t-66 17q-20 0 -38 -3t-41.5 -12t-59.5 -28l-62 84l41 301h387v-115h-314l29 32l-33 -222l-37 26q13 12 38.5 23t55.5 18t59 7q65 0 116 -30
t81 -82.5t30 -120.5q0 -69 -33.5 -124.5t-91.5 -88t-130 -32.5z" />
    <glyph glyph-name="six" unicode="6" horiz-adv-x="565" 
d="M287 0q-53 0 -98.5 19t-79 52.5t-52.5 78.5t-19 99q0 30 7.5 64t23 72.5t36.5 80.5t49 88l93 158h124l4 -10l-119 -196q-29 -48 -51 -90.5t-37.5 -81t-25.5 -74.5l-27 91q15 32 37 58t49 44t56.5 27t60.5 9q58 0 107 -31.5t78.5 -83.5t29.5 -114q0 -75 -31.5 -133.5
t-87.5 -92.5t-127 -34zM288 114q36 0 64.5 17t44.5 47.5t16 70.5q0 34 -16.5 63.5t-44.5 48t-63 18.5q-38 0 -67.5 -17.5t-46 -47t-16.5 -65.5q0 -38 16.5 -68.5t45.5 -48.5t67 -18z" />
    <glyph glyph-name="seven" unicode="7" horiz-adv-x="546" 
d="M102 0l287 634l24 -49h-358v117h441l15 -73l-274 -629h-135z" />
    <glyph glyph-name="eight" unicode="8" horiz-adv-x="586" 
d="M292 -3q-67 0 -122.5 27.5t-88.5 74t-33 103.5q0 34 9.5 63t28 52t45 41.5t60.5 32.5l-8 -28q-26 11 -47.5 26t-37 34.5t-23.5 42t-8 47.5q0 54 30.5 97t81.5 68.5t113 25.5q63 0 114 -25.5t81.5 -68.5t30.5 -97q0 -25 -8 -47.5t-22.5 -41t-36.5 -34t-51 -27.5l-5 24
q32 -11 58 -29t45 -42t29.5 -53t10.5 -61q0 -58 -33 -104.5t-88.5 -73.5t-124.5 -27zM292 109q34 0 61 13t42.5 35t15.5 51q0 31 -15.5 54.5t-42.5 37t-61 13.5q-33 0 -59.5 -13.5t-42.5 -37t-16 -54.5q0 -28 16 -50t42.5 -35.5t59.5 -13.5zM292 423q30 0 53.5 11t36.5 30
t13 44q0 26 -13 45.5t-36.5 31t-53.5 11.5q-29 0 -52.5 -11.5t-36.5 -31t-13 -45.5q0 -25 13 -44t36.5 -30t52.5 -11z" />
    <glyph glyph-name="nine" unicode="9" horiz-adv-x="560" 
d="M221 0l-4 10l212 442l12 -75q-15 -32 -36.5 -57t-49 -43.5t-56.5 -28t-58 -9.5q-57 0 -105 30.5t-77 81t-29 110.5q0 71 33 128.5t89.5 91t127.5 33.5q51 0 96.5 -18.5t79 -51.5t53 -76t19.5 -91q0 -29 -5.5 -59.5t-17.5 -66.5t-30.5 -79t-44.5 -98l-85 -174h-124z
M270 351q36 0 65 16.5t45 43.5t16 62q0 36 -16 65t-44 45.5t-64 16.5q-34 0 -60 -16t-41.5 -44.5t-15.5 -66.5q0 -32 15.5 -60t42 -45t57.5 -17z" />
    <glyph glyph-name="colon" unicode=":" horiz-adv-x="238" 
d="M119 -10q-36 0 -55.5 21t-19.5 59q0 35 20.5 57.5t54.5 22.5q36 0 55.5 -20.5t19.5 -59.5q0 -35 -20.5 -57.5t-54.5 -22.5zM119 377q-36 0 -55.5 21t-19.5 59q0 35 20.5 57.5t54.5 22.5q36 0 55.5 -20.5t19.5 -59.5q0 -35 -20.5 -57.5t-54.5 -22.5z" />
    <glyph glyph-name="semicolon" unicode=";" horiz-adv-x="272" 
d="M85 -186l-41 49q37 20 59.5 46.5t22.5 45.5q0 10 -4.5 19.5t-21.5 25.5q-21 19 -28 33t-7 31q0 26 19 42t49 16q27 0 48.5 -15t33.5 -41.5t12 -61.5q0 -31 -10.5 -60.5t-30 -54.5t-45 -44.5t-56.5 -30.5zM136 377q-36 0 -55.5 21t-19.5 59q0 35 20.5 57.5t54.5 22.5
q36 0 55.5 -20.5t19.5 -59.5q0 -35 -20.5 -57.5t-54.5 -22.5z" />
    <glyph glyph-name="less" unicode="&#x3c;" horiz-adv-x="524" 
d="M418 -2l-371 212v87l371 212l54 -93l-352 -196v67l352 -196z" />
    <glyph glyph-name="equal" unicode="=" horiz-adv-x="586" 
d="M56 329v104h474v-104h-474zM56 130v103h474v-103h-474z" />
    <glyph glyph-name="greater" unicode="&#x3e;" horiz-adv-x="525" 
d="M110 -2l-54 93l352 196v-67l-352 196l54 93l371 -212v-87z" />
    <glyph glyph-name="question" unicode="?" horiz-adv-x="520" 
d="M194 221l-28 138q35 9 64.5 20t51.5 24.5t37.5 29.5t23 35t7.5 40q0 26 -13 46t-37 31t-53 11q-38 0 -74 -26t-63 -77l-87 77q43 67 103.5 104t127.5 37q64 0 115 -26t81 -71.5t30 -102.5q0 -34 -14 -67.5t-40 -62.5t-61 -51.5t-77 -36.5l-14 -72h-80zM158 69
q0 35 21 57.5t55 22.5q35 0 55 -20.5t20 -59.5q0 -35 -21 -57.5t-54 -22.5q-36 0 -56 21t-20 59z" />
    <glyph glyph-name="at" unicode="@" horiz-adv-x="965" 
d="M414 -162q-87 0 -156.5 26.5t-118 75t-74 116.5t-25.5 150q0 117 41.5 210.5t115 159t171 100t208.5 34.5q80 0 144 -22.5t110 -64.5t70.5 -99.5t24.5 -127.5q0 -68 -19.5 -130t-54.5 -110t-81.5 -75.5t-100.5 -27.5q-36 0 -63.5 12.5t-43.5 35t-16 53.5q0 16 3 33t5 35
l18 -20q-15 -48 -40.5 -81t-59.5 -50.5t-74 -17.5q-44 0 -78.5 23.5t-54 64.5t-19.5 96q0 48 17.5 96.5t49.5 89t76.5 66t96.5 25.5q31 0 55.5 -15.5t40 -43t18.5 -64.5l-26 -48l27 161h116l-54 -311q-3 -18 2 -29.5t15.5 -17t23.5 -5.5q29 0 54.5 19.5t44 54.5t29 80.5
t10.5 95.5q0 75 -32 128.5t-93 82.5t-146 29q-102 0 -185 -29t-141 -83.5t-89.5 -132.5t-31.5 -177q0 -69 19.5 -122.5t56.5 -91.5t92 -57.5t125 -19.5q47 0 81 6.5t65 20t69 33.5l37 -67q-59 -30 -101 -45.5t-78 -21.5t-76 -6zM427 151q32 0 61 19.5t50 51.5t26 67
q3 17 4.5 29.5t1.5 23.5q0 24 -8.5 41t-25 26.5t-40.5 9.5q-36 0 -66 -27t-47.5 -69t-17.5 -88q0 -39 17 -61.5t45 -22.5z" />
    <glyph glyph-name="A" unicode="A" horiz-adv-x="698" 
d="M16 0l273 700h122l271 -700h-135l-150 398q-5 12 -13.5 38t-18.5 56.5t-18 57t-12 38.5l25 1q-6 -20 -14 -45t-17 -52t-17.5 -52t-15.5 -45l-150 -395h-130zM140 160l45 113h319l48 -113h-412z" />
    <glyph glyph-name="B" unicode="B" horiz-adv-x="688" 
d="M94 0v700h298q69 0 116.5 -20t72 -59.5t24.5 -95.5q0 -58 -31 -98t-87 -55l-1 20q47 -10 82 -35.5t54.5 -63t19.5 -85.5q0 -51 -16.5 -90t-48.5 -65t-76 -39.5t-99 -13.5h-308zM221 117h175q37 0 62.5 11t39 32.5t13.5 51.5q0 28 -14.5 48t-41.5 30.5t-64 10.5h-170v-184
zM221 413h159q29 0 50.5 11t33.5 30t12 44q0 40 -27 62.5t-79 22.5h-149v-170z" />
    <glyph glyph-name="C" unicode="C" horiz-adv-x="684" 
d="M391 -10q-76 0 -139 26t-109 74.5t-71.5 115t-25.5 145.5q0 76 27 141t75 114t112 76t139 27q51 0 99 -15t88 -41.5t67 -61.5l-83 -91q-26 27 -53.5 45.5t-57 28t-60.5 9.5q-46 0 -86.5 -17t-70 -48t-46.5 -73.5t-17 -94.5q0 -53 16.5 -96t47 -74t73 -47.5t93.5 -16.5
q33 0 64 9t57.5 25.5t48.5 38.5l64 -103q-24 -27 -64 -49t-89.5 -34.5t-98.5 -12.5z" />
    <glyph glyph-name="D" unicode="D" horiz-adv-x="757" 
d="M94 0v700h281q76 0 137.5 -25t106 -72t68 -111t23.5 -142t-23.5 -142.5t-67.5 -111t-106 -71.5t-138 -25h-281zM224 101l-10 19h156q49 0 87.5 16t65.5 46t41 72.5t14 95.5t-14 95.5t-41.5 72.5t-65.5 46t-87 16h-159l13 17v-496z" />
    <glyph glyph-name="E" unicode="E" horiz-adv-x="625" 
d="M94 0v700h458v-118h-330v-464h334v-118h-462zM154 300v116h347v-116h-347z" />
    <glyph glyph-name="F" unicode="F" horiz-adv-x="608" 
d="M94 0v700h130v-700h-130zM154 287v118h361v-118h-361zM154 580v120h404v-120h-404z" />
    <glyph glyph-name="G" unicode="G" horiz-adv-x="771" 
d="M412 -10q-79 0 -146 27.5t-116.5 76.5t-76.5 114.5t-27 142.5q0 76 27.5 141.5t77.5 114t117.5 75.5t145.5 27q55 0 106 -15t92 -42t68 -61l-82 -86q-28 27 -57.5 45t-61.5 28t-66 10q-50 0 -92.5 -18t-74 -50t-49.5 -75t-18 -94q0 -49 18.5 -93t51.5 -77t76.5 -51.5
t92.5 -18.5q37 0 69 11t57 30.5t38.5 45.5t13.5 56v22l18 -21h-207v116h317q2 -11 3 -24.5t1.5 -26t0.5 -21.5q0 -69 -24 -125.5t-67.5 -97.5t-101 -63.5t-124.5 -22.5z" />
    <glyph glyph-name="H" unicode="H" horiz-adv-x="768" 
d="M543 0v700h130v-700h-130zM94 0v700h130v-700h-130zM148 288v122h458v-122h-458z" />
    <glyph glyph-name="I" unicode="I" horiz-adv-x="505" 
d="M73 0v115h115v470h-115v115h360v-115h-115v-470h115v-115h-360z" />
    <glyph glyph-name="J" unicode="J" horiz-adv-x="650" 
d="M258 -10q-36 0 -68 9t-59 25.5t-48 40t-37 52.5l79 81q18 -26 34 -43t30.5 -26t30 -13t31.5 -4q32 0 56 14.5t37.5 40.5t13.5 59v357h-129v117h365v-117h-108v-370q0 -49 -17 -89.5t-47.5 -70.5t-72 -46.5t-91.5 -16.5z" />
    <glyph glyph-name="K" unicode="K" horiz-adv-x="734" 
d="M197 209l-20 129l360 362h163zM94 0v700h130v-700h-130zM553 0l-265 353l92 79l331 -432h-158z" />
    <glyph glyph-name="L" unicode="L" horiz-adv-x="602" 
d="M94 0v700h130v-580h323v-120h-453z" />
    <glyph glyph-name="M" unicode="M" horiz-adv-x="869" 
d="M94 0v700h123l255 -415l-72 1l258 414h117v-700h-129v263q0 90 4.5 162t15.5 143l16 -43l-217 -335h-66l-210 332l14 46q11 -67 15.5 -137.5t4.5 -167.5v-263h-129z" />
    <glyph glyph-name="N" unicode="N" horiz-adv-x="798" 
d="M94 0v700h117l406 -547l-22 -4q-4 28 -7 57.5t-5.5 61.5t-4 67t-2.5 73.5t-1 81.5v210h129v-700h-119l-408 539l26 7q5 -56 8.5 -95.5t5.5 -68t3.5 -47.5t2 -34.5t0.5 -29.5v-271h-129z" />
    <glyph glyph-name="O" unicode="O" horiz-adv-x="793" 
d="M396 -10q-75 0 -139 27t-111.5 75.5t-73.5 114.5t-26 144t26 144t73.5 114.5t111.5 75.5t139 27q76 0 140 -27t111 -76t73 -114.5t26 -143.5q0 -77 -26 -143t-73 -115t-111 -76t-140 -27zM396 114q48 0 87.5 17.5t68.5 50t45.5 75.5t16.5 94t-16.5 94t-45.5 75.5
t-68.5 50t-87.5 17.5q-47 0 -87 -17.5t-69 -49.5t-45 -75t-16 -95q0 -51 16 -94.5t45 -75.5t69 -49.5t87 -17.5z" />
    <glyph glyph-name="P" unicode="P" horiz-adv-x="644" 
d="M94 0v700h291q60 0 108.5 -29t77.5 -79t29 -112q0 -63 -29 -113.5t-77.5 -80.5t-108.5 -30h-161v-256h-130zM224 376h152q25 0 45.5 14t33 37t12.5 52t-12.5 51.5t-33 36t-45.5 13.5h-152v-204z" />
    <glyph glyph-name="Q" unicode="Q" horiz-adv-x="793" 
d="M614 -110l-266 352l101 69l263 -349zM396 -10q-75 0 -139 27t-111.5 75.5t-73.5 114.5t-26 144t26 144t73.5 114.5t111.5 75.5t139 27q76 0 140 -27t111 -76t73 -114.5t26 -143.5q0 -77 -26 -143t-73 -115t-111 -76t-140 -27zM396 114q48 0 87.5 17.5t68.5 50t45.5 75.5
t16.5 94t-16.5 94t-45.5 75.5t-68.5 50t-87.5 17.5q-47 0 -87 -17.5t-69 -49.5t-45 -75t-16 -95q0 -51 16 -94.5t45 -75.5t69 -49.5t87 -17.5z" />
    <glyph glyph-name="R" unicode="R" horiz-adv-x="697" 
d="M94 0v700h304q63 0 115 -29.5t82.5 -80t30.5 -113.5q0 -60 -30.5 -110.5t-82 -80t-115.5 -29.5h-177v-257h-127zM500 0l-178 316l134 25l198 -342zM221 370h178q29 0 50.5 13.5t33.5 37.5t12 53q0 33 -15 57t-42 38t-62 14h-155v-213z" />
    <glyph glyph-name="S" unicode="S" horiz-adv-x="627" 
d="M316 -10q-61 0 -112 15.5t-92 46.5t-73 75l85 96q49 -68 96 -94t106 -26q34 0 62 10.5t44 29t16 42.5q0 17 -6.5 31.5t-19.5 26t-32 21.5t-43 17t-53 13q-55 11 -96 29.5t-69 46t-41 62t-13 78.5t19.5 81t53.5 64t79 42t97 15q59 0 105.5 -14t82 -41.5t58.5 -66.5
l-86 -85q-20 31 -45 51.5t-54 31t-61 10.5q-36 0 -62.5 -10t-41.5 -28.5t-15 -44.5q0 -20 9 -35.5t25.5 -27.5t42.5 -21t59 -16q55 -11 99 -29.5t75 -44t47 -58t16 -72.5q0 -69 -32.5 -118.5t-91.5 -76t-138 -26.5z" />
    <glyph glyph-name="T" unicode="T" horiz-adv-x="604" 
d="M234 0v580h-200v120h536v-120h-206v-580h-130z" />
    <glyph glyph-name="U" unicode="U" horiz-adv-x="749" 
d="M374 -6q-83 0 -148 35.5t-102.5 98t-37.5 141.5v432h131v-423q0 -47 21.5 -83.5t57.5 -58.5t78 -22q46 0 83 22t58.5 58.5t21.5 83.5v423h126v-432q0 -79 -37.5 -141.5t-102.5 -98t-149 -35.5z" />
    <glyph glyph-name="V" unicode="V" horiz-adv-x="714" 
d="M297 0l-280 700h142l156 -401q12 -31 21 -55.5t16 -44.5t12.5 -39t12.5 -40h-28q7 27 15 53.5t18.5 56.5t25.5 69l146 401h143l-282 -700h-118z" />
    <glyph glyph-name="W" unicode="W" horiz-adv-x="995" 
d="M235 0l-218 700h136l124 -413q6 -19 11 -42t9 -45.5t7 -41.5t6 -32l-27 1q12 47 19 76t12.5 48.5t11.5 36.5l118 302h111l115 -302q10 -28 18 -53.5t13.5 -50t10.5 -50.5l-24 -5q4 24 6 39t4 27t4 23.5t6.5 28t11.5 42.5l123 411h135l-219 -700h-94l-178 426l12 -4
l-169 -422h-95z" />
    <glyph glyph-name="X" unicode="X" horiz-adv-x="692" 
d="M515 0l-217 314l-278 386h162l212 -310l283 -390h-162zM15 0l267 381l92 -79l-207 -302h-152zM410 325l-91 76l196 299h152z" />
    <glyph glyph-name="Y" unicode="Y" horiz-adv-x="670" 
d="M280 0v349l7 -49l-283 400h152l216 -310l-47 3l195 307h146l-271 -411l15 68v-357h-130z" />
    <glyph glyph-name="Z" unicode="Z" horiz-adv-x="668" 
d="M60 0v91l391 522l31 -35h-396v122h515v-90l-389 -523l-32 33h432v-120h-552z" />
    <glyph glyph-name="bracketleft" unicode="[" horiz-adv-x="409" 
d="M80 -190v890h271v-100h-162l6 8v-710l-10 12h166v-100h-271z" />
    <glyph glyph-name="backslash" unicode="\" horiz-adv-x="567" 
d="M436 -107l-398 807h121l400 -807h-123z" />
    <glyph glyph-name="bracketright" unicode="]" horiz-adv-x="409" 
d="M58 -190v100h162l-6 -8v710l10 -12h-166v100h271v-890h-271z" />
    <glyph glyph-name="asciicircum" unicode="^" horiz-adv-x="584" 
d="M23 366l214 363h110l214 -363h-131l-158 271l42 3l-162 -274h-129z" />
    <glyph glyph-name="underscore" unicode="_" horiz-adv-x="689" 
d="M48 -171v96h592v-96h-592z" />
    <glyph glyph-name="grave" unicode="`" horiz-adv-x="500" 
d="M323 598l-185 100l68 90l156 -131z" />
    <glyph glyph-name="a" unicode="a" horiz-adv-x="642" 
d="M271 -10q-65 0 -118 36t-85 98t-32 141t32 141t87 97t124 35q40 0 73 -11.5t58 -32.5t41.5 -48t22.5 -58l-27 7v132h124v-527h-125v126l29 5q-7 -27 -25.5 -52.5t-46 -45t-61 -31.5t-71.5 -12zM305 99q43 0 76 21t51.5 58.5t18.5 86.5q0 48 -18.5 85t-51.5 58t-76 21
t-75.5 -21t-50.5 -58t-18 -85q0 -49 18 -86.5t50.5 -58.5t75.5 -21z" />
    <glyph glyph-name="b" unicode="b" horiz-adv-x="640" 
d="M363 -10q-35 0 -68.5 10.5t-60.5 28.5t-45 40.5t-24 45.5l29 13l-3 -126h-119v738h123v-335l-22 10q5 24 22.5 45.5t43.5 39t57 28t63 10.5q71 0 125.5 -35t86 -97t31.5 -141q0 -80 -31 -142t-85.5 -97.5t-122.5 -35.5zM337 98q42 0 75 21.5t52 59t19 86.5q0 48 -18.5 85
t-51.5 58t-76 21t-76 -21t-52 -58t-19 -85q0 -49 19 -86.5t52 -59t76 -21.5z" />
    <glyph glyph-name="c" unicode="c" horiz-adv-x="539" 
d="M298 -10q-74 0 -133 36t-93 98t-34 140t34 140t93 98t133 36q71 0 129 -27t90 -75l-68 -82q-15 21 -38 38t-49 27t-52 10q-44 0 -78.5 -21.5t-54.5 -59t-20 -84.5t20.5 -84t55.5 -59t78 -22q26 0 50.5 8.5t46.5 24.5t41 40l68 -83q-34 -44 -93.5 -71.5t-125.5 -27.5z" />
    <glyph glyph-name="d" unicode="d" horiz-adv-x="641" 
d="M284 -10q-70 0 -125.5 35.5t-88 97t-32.5 141.5q0 79 32 141t87.5 97.5t125.5 35.5q38 0 73.5 -12t63.5 -32.5t44.5 -45.5t18.5 -52l-33 -4v348h123v-740h-119l-3 124l24 -2q-1 -25 -17.5 -48t-42.5 -42t-60.5 -30.5t-70.5 -11.5zM308 94q43 0 76 22t51.5 60t18.5 88
q0 49 -18.5 87.5t-51.5 60t-76 21.5t-76 -21.5t-51.5 -60t-18.5 -87.5q0 -50 18.5 -88t51.5 -60t76 -22z" />
    <glyph glyph-name="e" unicode="e" horiz-adv-x="586" 
d="M319 -10q-83 0 -146.5 35t-99 95.5t-35.5 138.5q0 62 20 113t55.5 88.5t85 58t108.5 20.5q52 0 97 -20t78 -54.5t50.5 -82t16.5 -103.5l-1 -43h-427l-23 84h347l-16 -17v22q-3 31 -20 54.5t-43.5 37t-58.5 13.5q-49 0 -82.5 -19t-50.5 -54.5t-17 -88.5q0 -51 21.5 -89
t61 -58.5t92.5 -20.5q37 0 68 12t67 43l61 -85q-27 -25 -61.5 -42.5t-72.5 -27.5t-75 -10z" />
    <glyph glyph-name="f" unicode="f" horiz-adv-x="393" 
d="M120 0v574q0 48 21 85.5t58 59t86 21.5q34 0 63 -11.5t49 -31.5l-38 -93q-13 11 -27.5 17t-27.5 6q-20 0 -33.5 -6.5t-20 -19.5t-6.5 -31v-570h-62h-33.5h-28.5zM38 408v108h325v-108h-325z" />
    <glyph glyph-name="g" unicode="g" horiz-adv-x="656" 
d="M309 -230q-59 0 -117.5 18t-94.5 47l44 91q21 -15 47 -26t55.5 -17t58.5 -6q53 0 88.5 16.5t53.5 50t18 83.5v97l18 -7q-6 -31 -33 -59t-68 -45.5t-84 -17.5q-75 0 -132.5 35t-91 95.5t-33.5 139.5t33 140.5t90.5 97t129.5 35.5q30 0 58 -7t51.5 -20t42.5 -29t31 -34
t15 -35l-26 -8l2 122h121v-491q0 -64 -19 -113t-55 -83.5t-87 -52t-116 -17.5zM314 100q45 0 79.5 21t53.5 58t19 85q0 49 -19.5 86.5t-53.5 58.5t-79 21t-79 -21.5t-53.5 -59t-19.5 -85.5q0 -47 19.5 -84.5t53.5 -58.5t79 -21z" />
    <glyph glyph-name="h" unicode="h" horiz-adv-x="609" 
d="M72 0v740h122v-321l-23 -12q10 36 39 65.5t69 47.5t82 18q60 0 100.5 -24t61 -72t20.5 -120v-322h-123v313q0 40 -11 66.5t-34 39t-56 11.5q-27 0 -49.5 -8.5t-39 -24t-26 -35.5t-9.5 -44v-318h-61h-33.5h-28.5z" />
    <glyph glyph-name="i" unicode="i" horiz-adv-x="293" 
d="M86 0v527h123v-527h-123zM146 639q-37 0 -57.5 18.5t-20.5 52.5q0 32 21 52t57 20q38 0 58.5 -18.5t20.5 -53.5q0 -31 -21 -51t-58 -20z" />
    <glyph glyph-name="j" unicode="j" horiz-adv-x="283" 
d="M14 -201l-47 94q42 0 67.5 13t38 40t12.5 69v512h123v-541q0 -59 -23.5 -101t-67 -64t-103.5 -22zM149 639q-38 0 -58.5 18.5t-20.5 52.5q0 32 21 52t58 20t57.5 -18.5t20.5 -53.5q0 -31 -21 -51t-57 -20z" />
    <glyph glyph-name="k" unicode="k" horiz-adv-x="589" 
d="M187 161l-24 115l250 251h164zM72 0v740h123v-740h-123zM428 0l-194 235l87 74l259 -309h-152z" />
    <glyph glyph-name="l" unicode="l" horiz-adv-x="270" 
d="M73 0v740h124v-740h-124z" />
    <glyph glyph-name="m" unicode="m" horiz-adv-x="936" 
d="M70 0v527h121l2 -106l-20 -8q9 26 27 48.5t43 39t53 26t57 9.5q43 0 76.5 -13.5t56 -42.5t33.5 -74l-19 4l8 16q11 24 31 43.5t45 35t52.5 23.5t54.5 8q60 0 100 -24t60 -73t20 -121v-318h-124v310q0 40 -10.5 66t-32 38.5t-53.5 12.5q-25 0 -47.5 -8.5t-38.5 -24
t-25 -35.5t-9 -44v-315h-124v311q0 38 -11 63.5t-32 39t-51 13.5q-25 0 -47 -8.5t-38 -23.5t-25 -35t-9 -44v-316h-124z" />
    <glyph glyph-name="n" unicode="n" horiz-adv-x="609" 
d="M72 0v527h120l2 -108l-23 -12q10 36 39 65.5t69 47.5t82 18q60 0 100.5 -24t61 -72t20.5 -120v-322h-123v313q0 40 -11 66.5t-34 39t-56 11.5q-27 0 -49.5 -8.5t-39 -24t-26 -35.5t-9.5 -44v-318h-61h-33.5h-28.5z" />
    <glyph glyph-name="o" unicode="o" horiz-adv-x="624" 
d="M313 -10q-79 0 -141 35.5t-98 97.5t-36 141t36 141t98 97.5t141 35.5q78 0 140 -35.5t97.5 -97.5t35.5 -141t-35.5 -141t-97.5 -97.5t-140 -35.5zM313 99q43 0 76.5 22t53 59t18.5 84q1 48 -18.5 85t-53 58.5t-76.5 21.5t-77.5 -21.5t-53.5 -59t-19 -84.5t19 -84
t53.5 -59t77.5 -22z" />
    <glyph glyph-name="p" unicode="p" horiz-adv-x="641" 
d="M72 -220v747h121l2 -120l-21 9q6 31 34 58.5t68.5 44.5t84.5 17q70 0 124.5 -35t86 -96t31.5 -141q0 -79 -31.5 -140.5t-86 -97t-122.5 -35.5q-46 0 -88.5 18t-72 47t-36.5 61l30 14v-351h-124zM338 100q42 0 75 21t51.5 58t18.5 85t-18 84.5t-51 57.5t-76 21
q-44 0 -76.5 -20.5t-51.5 -57.5t-19 -85t19 -85t51.5 -58t76.5 -21z" />
    <glyph glyph-name="q" unicode="q" horiz-adv-x="640" 
d="M445 -220v346l25 -3q-1 -24 -17.5 -47.5t-43 -43t-59 -31t-67.5 -11.5q-70 0 -125.5 35.5t-87.5 97.5t-32 141q0 80 31.5 141.5t86 97t124.5 35.5q38 0 73 -12t63 -32t44.5 -45t17.5 -51l-32 -3l2 133h120v-748h-123zM303 99q43 0 76 21t51.5 58t18.5 86t-18.5 86.5
t-51.5 58.5t-76 21t-76 -21.5t-51.5 -59t-18.5 -85.5t18.5 -85.5t51.5 -58.5t76 -21z" />
    <glyph glyph-name="r" unicode="r" horiz-adv-x="421" 
d="M72 0v527h121l2 -168l-17 38q11 40 38 72t62.5 50.5t74.5 18.5q17 0 32.5 -3t25.5 -7l-33 -135q-11 6 -27 10t-32 4q-25 0 -47.5 -9.5t-39.5 -26.5t-26.5 -39.5t-9.5 -50.5v-281h-124z" />
    <glyph glyph-name="s" unicode="s" horiz-adv-x="485" 
d="M248 -10q-70 0 -125.5 23.5t-90.5 67.5l80 69q30 -34 67 -49t78 -15q17 0 30.5 4t23.5 12t15.5 18.5t5.5 23.5q0 24 -18 38q-10 7 -31.5 15t-55.5 16q-54 14 -90 32.5t-56 41.5q-17 19 -25.5 43t-8.5 52q0 35 15.5 63.5t42.5 49.5t63 32t75 11q40 0 77.5 -10t70 -28.5
t55.5 -44.5l-68 -75q-19 18 -41.5 32t-45.5 22.5t-43 8.5q-19 0 -34 -3.5t-25 -10.5t-15.5 -17.5t-5.5 -24.5q1 -12 6.5 -22.5t15.5 -17.5q11 -7 33 -16t57 -17q49 -13 82 -29t52 -37q19 -18 27 -42t8 -53q0 -47 -26.5 -84t-72 -58t-102.5 -21z" />
    <glyph glyph-name="t" unicode="t" horiz-adv-x="389" 
d="M129 0v661h123v-661h-123zM25 413v114h342v-114h-342z" />
    <glyph glyph-name="u" unicode="u" horiz-adv-x="618" 
d="M255 -10q-57 0 -99 25.5t-64 73t-22 113.5v325h123v-299q0 -42 13 -71.5t38 -45.5t60 -16q26 0 47.5 8.5t37.5 24t25 37t9 46.5v316h123v-527h-120l-2 110l22 12q-12 -38 -40.5 -67.5t-67.5 -47t-83 -17.5z" />
    <glyph glyph-name="v" unicode="v" horiz-adv-x="584" 
d="M241 0l-222 527h134l150 -394l-26 -7l158 401h131l-233 -527h-92z" />
    <glyph glyph-name="w" unicode="w" horiz-adv-x="812" 
d="M196 0l-177 527l126 1l118 -376l-22 2l128 294h74l131 -294l-26 -3l119 376h126l-178 -527h-88l-135 316l19 -2l-128 -314h-87z" />
    <glyph glyph-name="x" unicode="x" horiz-adv-x="578" 
d="M413 0l-150 203l-28 38l-217 286h152l146 -198l31 -42l215 -287h-149zM17 0l209 280l70 -84l-134 -196h-145zM347 246l-67 83l121 198h145z" />
    <glyph glyph-name="y" unicode="y" horiz-adv-x="595" 
d="M152 -230l112 259l1 -82l-260 580h142l145 -344q7 -13 14 -34.5t12 -42.5l-25 -8q7 19 15 40.5t15 44.5l124 344h143l-220 -527l-90 -230h-128z" />
    <glyph glyph-name="z" unicode="z" horiz-adv-x="507" 
d="M50 0v88l275 362v-26h-275v103h403v-88l-267 -355l-4 19h278v-103h-410z" />
    <glyph glyph-name="braceleft" unicode="{" horiz-adv-x="416" 
d="M367 -202q-50 10 -86 26t-59 39t-34.5 55.5t-11.5 74.5l1 95q0 55 -24 84.5t-69 30.5h-42v94h44q45 1 68 30t23 85l-1 95q0 82 45.5 128t145.5 67l24 -85q-40 -13 -63 -27.5t-32.5 -38t-9.5 -62.5l2 -91q0 -58 -29.5 -96.5t-88.5 -54.5l-1 7q60 -18 89.5 -56.5
t29.5 -95.5l-2 -91q0 -38 9.5 -60.5t32.5 -37t63 -28.5z" />
    <glyph glyph-name="bar" unicode="|" horiz-adv-x="262" 
d="M73 -193v933h116v-933h-116z" />
    <glyph glyph-name="braceright" unicode="}" horiz-adv-x="416" 
d="M49 -202l-24 85q41 13 63.5 27.5t32 38t9.5 62.5l-2 91q0 58 29.5 96.5t89.5 54.5v-7q-60 18 -89.5 56.5t-29.5 95.5l2 91q0 38 -9.5 60.5t-32 37.5t-63.5 28l24 87q50 -10 86 -26t59.5 -39t34.5 -55.5t11 -74.5l-1 -95q0 -55 24 -84.5t69 -30.5h42v-94h-44
q-45 -1 -68 -30t-23 -85l1 -95q0 -82 -45 -128t-146 -67z" />
    <glyph glyph-name="asciitilde" unicode="~" horiz-adv-x="527" 
d="M366 217q-16 0 -37 5.5t-42 13t-36 13.5t-32 12t-32 10.5t-24 4.5q-18 0 -27.5 -15.5t-9.5 -44.5h-89q0 78 33.5 120t99.5 42q12 0 27 -3.5t30.5 -8.5t30 -10.5t25.5 -10.5q13 -5 29 -11t30 -10.5t23 -4.5q17 0 27.5 14.5t8.5 37.5l88 -3q0 -49 -14 -82.5t-41.5 -51
t-67.5 -17.5z" />
    <glyph glyph-name="uni00A0" unicode="&#xa0;" horiz-adv-x="294" 
 />
    <glyph glyph-name="exclamdown" unicode="&#xa1;" horiz-adv-x="262" 
d="M163 284q7 -62 13.5 -128.5t10 -132t3.5 -124.5v-73h-129v73q0 61 3.5 128t10 133t13.5 124h75zM128 541q35 0 55 -21t20 -59q0 -35 -21 -57.5t-54 -22.5q-36 0 -55.5 20.5t-19.5 59.5q0 35 20.5 57.5t54.5 22.5z" />
    <glyph glyph-name="cent" unicode="&#xa2;" horiz-adv-x="545" 
d="M304 78q-75 0 -134 36t-93.5 98t-34.5 140t34.5 140t93.5 98t134 36q71 0 129 -27t90 -75l-68 -82q-15 21 -38 38t-49 27t-52 10q-45 0 -80 -21.5t-55 -59t-20 -84.5t21 -84t56 -59t79 -22q26 0 50.5 8.5t46.5 24.5t41 40l68 -83q-33 -44 -93 -71.5t-126 -27.5zM248 0
v108l14 37v415l-14 46v96h105v-97l-12 -37v-426l12 -35v-107h-105z" />
    <glyph glyph-name="sterling" unicode="&#xa3;" horiz-adv-x="620" 
d="M193 53l-75 21q16 9 29 28t20.5 44.5t7.5 52.5q0 14 -2 29.5t-6 34.5t-10.5 40.5t-15.5 48.5q-12 37 -18 61t-8.5 41t-2.5 33q0 68 29 118.5t81.5 78.5t123.5 28q69 0 119.5 -23t73.5 -64l-90 -70q-14 16 -30 26t-35 15t-40 5q-34 0 -60 -15.5t-41 -42.5t-15 -61
q0 -31 10 -65.5t20 -63.5q10 -32 19.5 -65.5t9.5 -61.5q0 -31 -10 -59t-30.5 -56t-53.5 -58zM433 -21q-27 0 -61 9t-56 16q-13 4 -31 9t-36 9t-34 4q-32 0 -68.5 -9t-73.5 -25l-46 86q41 25 90 38.5t99 13.5q30 0 54 -5t67 -20q21 -7 45.5 -14.5t48.5 -7.5q26 0 53.5 8.5
t57.5 26.5l59 -79q-32 -29 -77 -44.5t-91 -15.5zM44 316v88h414v-88h-414z" />
    <glyph glyph-name="currency" unicode="&#xa4;" horiz-adv-x="554" 
d="M280 118q-53 0 -96 24.5t-68 66.5t-25 94t25 94.5t68 67t96 24.5t95.5 -25t67.5 -67t25 -94t-25 -94t-67.5 -66.5t-95.5 -24.5zM130 74l-81 81l90 95l80 -82zM135 363l-93 88l80 81l94 -90zM280 216q24 0 41.5 11.5t27.5 31t10 44.5q0 26 -10 46t-27.5 31t-41.5 11
q-23 0 -41 -11t-28 -31t-10 -46q0 -25 10 -44.5t28 -31t41 -11.5zM430 81l-94 89l80 81l95 -90zM420 362l-81 80l92 97l81 -80z" />
    <glyph glyph-name="yen" unicode="&#xa5;" horiz-adv-x="670" 
d="M280 0v349l7 -49l-283 400h152l216 -310l-47 3l195 307h146l-271 -411l15 68v-357h-130zM145 102v81l420 -2v-81zM145 236v80l420 -1v-81z" />
    <glyph glyph-name="brokenbar" unicode="&#xa6;" horiz-adv-x="269" 
d="M76 -202v398h117v-398h-117zM76 343v397h117v-397h-117z" />
    <glyph glyph-name="section" unicode="&#xa7;" horiz-adv-x="558" 
d="M332 129l-22 69q33 4 54 14t31.5 24.5t10.5 31.5q0 21 -15 35t-48 25l-113 35q-17 6 -41 18.5t-46.5 33t-38 51t-15.5 74.5q0 37 13 68.5t39.5 55t66 36.5t92.5 13q41 0 76.5 -9.5t65 -28.5t52.5 -47l-66 -75q-20 20 -41.5 32.5t-44.5 18.5t-46 6q-39 0 -64 -18.5
t-25 -48.5q0 -17 9 -31t27 -25t44 -19l90 -29q76 -24 112 -63t34 -96q-3 -47 -26.5 -80t-65.5 -50.5t-99 -20.5zM273 -137q-42 0 -84 11.5t-78.5 32.5t-62.5 47l60 85q39 -36 82.5 -55.5t81.5 -19.5q46 0 71 16.5t25 47.5q0 17 -10.5 29.5t-28.5 22.5t-41 17l-107 34
q-70 23 -104 62t-34 96q0 42 21 76t60.5 55.5t96.5 22.5l20 -75q-23 -3 -39.5 -12.5t-25.5 -23.5t-9 -33q0 -22 17.5 -39t57.5 -29l86 -26q42 -13 78 -34.5t58 -53.5t22 -79q0 -50 -23.5 -89.5t-70.5 -62.5t-119 -23z" />
    <glyph glyph-name="dieresis" unicode="&#xa8;" horiz-adv-x="500" 
d="M357 636q-36 0 -55.5 19t-19.5 53q0 32 20 52.5t55 20.5q36 0 56 -19t20 -54q0 -32 -20.5 -52t-55.5 -20zM143 636q-36 0 -55.5 19t-19.5 53q0 32 20 52.5t55 20.5q36 0 55.5 -19t19.5 -54q0 -32 -20 -52t-55 -20z" />
    <glyph glyph-name="copyright" unicode="&#xa9;" horiz-adv-x="788" 
d="M394 -11q-76 0 -141.5 28t-115 77.5t-77 114.5t-27.5 141t27.5 141t77 114.5t115 77.5t141.5 28q74 0 139.5 -28t115.5 -77.5t78 -114.5t28 -141t-28 -141t-78 -114.5t-115.5 -77.5t-139.5 -28zM411 142q-60 0 -108.5 27t-77 74t-28.5 107q0 57 28.5 104t77 75t108.5 28
q34 0 67.5 -12t63.5 -34l-41 -86q-18 13 -33 21t-28 11.5t-25 3.5q-33 0 -58.5 -15t-40 -40t-14.5 -56q0 -33 14.5 -58.5t40 -39.5t58.5 -14q21 0 43.5 8.5t45.5 26.5l42 -87q-31 -22 -65.5 -33t-69.5 -11zM394 63q59 0 111.5 22.5t91.5 61.5t61.5 91t22.5 112
q0 61 -22.5 112.5t-61.5 91t-91.5 61.5t-111.5 22q-60 0 -112.5 -22t-91.5 -61.5t-61 -91t-22 -112.5q0 -60 22 -112t61 -91t91.5 -61.5t112.5 -22.5z" />
    <glyph glyph-name="ordfeminine" unicode="&#xaa;" horiz-adv-x="374" 
d="M142 391q-39 0 -67.5 21.5t-43.5 60t-15 89.5q0 46 17.5 82t48.5 56.5t72 20.5q51 0 77.5 -33t26.5 -94l-17 54v67h101v-314h-101v73l17 36q0 -30 -15 -57.5t-41.5 -44.5t-59.5 -17zM177 466q20 0 35.5 11t24 31.5t8.5 47.5q0 42 -18.5 66t-50.5 24q-16 0 -29.5 -11.5
t-21.5 -31t-8 -42.5q0 -29 7 -50.5t20.5 -33t32.5 -11.5z" />
    <glyph glyph-name="guillemotleft" unicode="&#xab;" horiz-adv-x="513" 
d="M401 42l-165 213v6l164 218l73 -52l-120 -176l1 19l120 -177zM176 42l-165 213v6l164 218l73 -52l-120 -176l1 19l120 -177z" />
    <glyph glyph-name="logicalnot" unicode="&#xac;" horiz-adv-x="670" 
d="M502 113v206l35 -23h-490v112h576v-295h-121z" />
    <glyph glyph-name="uni00AD" unicode="&#xad;" horiz-adv-x="415" 
d="M54 227v118h309v-118h-309z" />
    <glyph glyph-name="registered" unicode="&#xae;" horiz-adv-x="507" 
d="M259 251q-66 0 -120 31t-86 84t-32 118q0 49 18.5 91.5t51.5 74t76 49.5t92 18q48 0 91 -18t75 -50t50.5 -74t18.5 -91t-18.5 -91.5t-50.5 -74t-74.5 -49.5t-91.5 -18zM259 314q48 0 86.5 22.5t62 61.5t23.5 86t-23.5 86t-62 62t-86.5 23q-49 0 -88.5 -23t-63.5 -62
t-24 -86t24 -86t63.5 -61.5t88.5 -22.5zM292 367l-37 96l59 15l48 -111h-70zM167 367v239h114q35 0 56.5 -20.5t21.5 -52.5q0 -33 -22.5 -54t-55.5 -21h-65l16 10v-101h-65zM232 495l-15 7h44q16 0 25.5 7t9.5 18q0 12 -8.5 18.5t-24.5 6.5h-48l17 8v-65z" />
    <glyph glyph-name="macron" unicode="&#xaf;" horiz-adv-x="424" 
d="M99 639v84h302v-84h-302z" />
    <glyph glyph-name="degree" unicode="&#xb0;" horiz-adv-x="532" 
d="M266 397q-45 0 -81.5 21t-57.5 56.5t-21 78.5q0 45 21 80.5t57 56.5t82 21t82 -21t57 -56.5t21 -79.5t-21 -79.5t-57.5 -56.5t-81.5 -21zM266 474q21 0 37.5 11t26.5 29t10 40t-10 40t-26.5 28.5t-37.5 10.5t-38 -10.5t-26.5 -28.5t-9.5 -41q0 -22 10 -40t26.5 -28.5
t37.5 -10.5z" />
    <glyph glyph-name="plusminus" unicode="&#xb1;" horiz-adv-x="603" 
d="M56 295v104h490v-104h-490zM57 -3v106h490v-106h-490zM242 157v392h120v-392h-120z" />
    <glyph glyph-name="uni00B2" unicode="&#xb2;" horiz-adv-x="353" 
d="M63 418l-10 75l100 94q11 9 24.5 22t23.5 29.5t10 32.5q0 15 -8 24t-24 9q-18 0 -37.5 -13.5t-38.5 -40.5l-62 46q17 27 39.5 47t49 31t57.5 11q35 0 61 -14t40.5 -37t14.5 -53q0 -32 -16.5 -59t-39.5 -49t-44 -38l-63 -57l4 15h165v-75h-246z" />
    <glyph glyph-name="uni00B3" unicode="&#xb3;" horiz-adv-x="347" 
d="M169 412q-22 0 -43 4t-40 11.5t-37 18.5l38 63q18 -11 35 -16.5t35 -5.5q26 0 42.5 13.5t16.5 35.5q0 18 -14.5 29.5t-39.5 11.5q-14 0 -29 -3.5t-27 -7.5l-22 58l116 92l15 -14h-141v76h197l8 -73l-106 -83l-11 7q7 4 16.5 6.5t15.5 2.5q49 0 79 -28.5t30 -76.5
q0 -35 -18 -62.5t-48.5 -43t-67.5 -15.5z" />
    <glyph glyph-name="acute" unicode="&#xb4;" horiz-adv-x="500" 
d="M177 598l-39 59l156 130l68 -89z" />
    <glyph glyph-name="uni00B5" unicode="&#xb5;" horiz-adv-x="605" 
d="M78 -159v686h119v-305q0 -42 11 -70t33 -42.5t54 -14.5q26 0 48 9.5t38 27t25.5 40t9.5 49.5v306h119v-527h-116l-2 109l10 -12q-15 -36 -38.5 -59.5t-54.5 -35.5t-67 -12q-18 0 -34.5 5.5t-29.5 16.5t-18 24l10 27l2 -222h-119z" />
    <glyph glyph-name="paragraph" unicode="&#xb6;" horiz-adv-x="730" 
d="M246 0v314l33 -37h-45q-54 0 -96.5 27t-67 74t-24.5 107q0 65 28 113.5t78.5 75t118.5 26.5h365v-700h-129v660l29 -64h-217l56 56v-652h-129z" />
    <glyph glyph-name="periodcentered" unicode="&#xb7;" horiz-adv-x="238" 
d="M119 253q-36 0 -55.5 21t-19.5 59q0 35 20.5 57.5t54.5 22.5q36 0 55.5 -20.5t19.5 -59.5q0 -35 -20.5 -57.5t-54.5 -22.5z" />
    <glyph glyph-name="cedilla" unicode="&#xb8;" horiz-adv-x="500" 
d="M156 -245l-7 61q22 0 47 7t42 18.5t17 23.5q0 13 -15 20.5t-34 11.5t-34 4l-15 11l71 112h67l-44 -69q51 -9 76 -33.5t25 -60.5q0 -28 -18 -48t-47 -33.5t-63.5 -19.5t-67.5 -5z" />
    <glyph glyph-name="uni00B9" unicode="&#xb9;" horiz-adv-x="284" 
d="M122 429v281l10 -26l-54 -34l-39 72l105 62h67v-355h-44h-22h-23z" />
    <glyph glyph-name="ordmasculine" unicode="&#xba;" horiz-adv-x="370" 
d="M184 392q-46 0 -82 20.5t-57 56.5t-21 81q0 47 21 83.5t57 57.5t82 21t82.5 -21.5t58 -58t21.5 -82.5q0 -45 -21 -80.5t-58 -56.5t-83 -21zM184 468q20 0 34 10.5t22 29.5t8 43q0 26 -8 45t-22 29.5t-34 10.5q-19 0 -33 -11t-22 -30t-8 -44q0 -24 7.5 -43t22 -29.5
t33.5 -10.5z" />
    <glyph glyph-name="guillemotright" unicode="&#xbb;" horiz-adv-x="517" 
d="M341 42l-73 52l120 176l-1 -19l-120 177l73 51l165 -213v-6zM113 42l-73 52l120 176l-1 -19l-120 177l73 51l165 -213v-6z" />
    <glyph glyph-name="onequarter" unicode="&#xbc;" horiz-adv-x="803" 
d="M130 359v281l10 -26l-54 -34l-39 72l105 62h67v-355h-44h-22h-23zM103 0l467 700h115l-468 -700h-114zM688 153h76v-76h-76v76zM515 119l-16 34h143l-24 -25v156l29 -11zM704 -2h-92v103l20 -24h-163l-18 73l172 211h81v-363z" />
    <glyph glyph-name="onehalf" unicode="&#xbd;" horiz-adv-x="800" 
d="M130 359v281l10 -26l-54 -34l-39 72l105 62h67v-355h-44h-22h-23zM105 0l467 700h115l-468 -700h-114zM521 0l-10 75l100 94q11 9 24.5 22t23.5 29.5t10 32.5q0 15 -8 24t-24 9q-18 0 -37.5 -13.5t-38.5 -40.5l-62 46q17 27 39.5 47t49 31t57.5 11q35 0 61 -14t40.5 -37
t14.5 -53q0 -32 -16.5 -59t-39.5 -49t-44 -38l-63 -57l4 15h165v-75h-246z" />
    <glyph glyph-name="threequarters" unicode="&#xbe;" horiz-adv-x="812" 
d="M141 342q-22 0 -43 4t-40 11.5t-37 18.5l38 63q18 -11 35 -16.5t35 -5.5q26 0 42.5 13.5t16.5 35.5q0 18 -14.5 29.5t-39.5 11.5q-14 0 -29 -3.5t-27 -7.5l-22 58l116 92l15 -14h-141v76h197l8 -73l-106 -83l-11 7q7 4 16.5 6.5t15.5 2.5q49 0 79 -28.5t30 -76.5
q0 -35 -18 -62.5t-48.5 -43t-67.5 -15.5zM122 0l467 700h115l-468 -700h-114zM697 153h76v-76h-76v76zM524 119l-16 34h143l-24 -25v156l29 -11zM713 -2h-92v103l20 -24h-163l-18 73l172 211h81v-363z" />
    <glyph glyph-name="questiondown" unicode="&#xbf;" horiz-adv-x="520" 
d="M309 313l28 -138q-36 -9 -65 -20t-51.5 -24.5t-37.5 -29.5t-23 -35t-8 -40q0 -26 13.5 -46t37 -31t53.5 -11q38 0 73.5 26t63.5 77l87 -77q-44 -67 -104.5 -104t-126.5 -37q-64 0 -115 26t-81 71.5t-30 102.5q0 35 14 68t40 62t60.5 51.5t76.5 36.5l14 72h81zM344 465
q0 -35 -21 -57.5t-54 -22.5q-36 0 -55.5 20.5t-19.5 59.5q0 35 20.5 57.5t54.5 22.5q36 0 55.5 -21t19.5 -59z" />
    <glyph glyph-name="Agrave" unicode="&#xc0;" horiz-adv-x="698" 
d="M16 0l273 700h122l271 -700h-135l-150 398q-5 12 -13.5 38t-18.5 56.5t-18 57t-12 38.5l25 1q-6 -20 -14 -45t-17 -52t-17.5 -52t-15.5 -45l-150 -395h-130zM140 160l45 113h319l48 -113h-412zM433 752l-211 77l52 99l192 -113z" />
    <glyph glyph-name="Aacute" unicode="&#xc1;" horiz-adv-x="698" 
d="M16 0l273 700h122l271 -700h-135l-150 398q-5 12 -13.5 38t-18.5 56.5t-18 57t-12 38.5l25 1q-6 -20 -14 -45t-17 -52t-17.5 -52t-15.5 -45l-150 -395h-130zM140 160l45 113h319l48 -113h-412zM274 752l-31 63l192 113l50 -99z" />
    <glyph glyph-name="Acircumflex" unicode="&#xc2;" horiz-adv-x="698" 
d="M16 0l273 700h122l271 -700h-135l-150 398q-5 12 -13.5 38t-18.5 56.5t-18 57t-12 38.5l25 1q-6 -20 -14 -45t-17 -52t-17.5 -52t-15.5 -45l-150 -395h-130zM140 160l45 113h319l48 -113h-412zM222 755l-41 42l128 103h79l128 -103l-41 -42l-141 67h29z" />
    <glyph glyph-name="Atilde" unicode="&#xc3;" horiz-adv-x="698" 
d="M16 0l273 700h122l271 -700h-135l-150 398q-5 12 -13.5 38t-18.5 56.5t-18 57t-12 38.5l25 1q-6 -20 -14 -45t-17 -52t-17.5 -52t-15.5 -45l-150 -395h-130zM140 160l45 113h319l48 -113h-412zM424 768q-22 0 -44.5 7t-44.5 16q-17 7 -29 11t-22 4q-14 0 -22 -9.5
t-8 -28.5h-85q0 58 35 90.5t83 32.5q20 0 39.5 -6t40.5 -16q15 -6 27.5 -10t21.5 -4q14 0 21.5 10t6.5 26h84q0 -32 -12.5 -60.5t-36 -45.5t-55.5 -17z" />
    <glyph glyph-name="Adieresis" unicode="&#xc4;" horiz-adv-x="698" 
d="M16 0l273 700h122l271 -700h-135l-150 398q-5 12 -13.5 38t-18.5 56.5t-18 57t-12 38.5l25 1q-6 -20 -14 -45t-17 -52t-17.5 -52t-15.5 -45l-150 -395h-130zM140 160l45 113h319l48 -113h-412zM459 757q-38 0 -57 19.5t-19 52.5q0 29 19 50.5t57 21.5q37 0 56 -19.5
t19 -52.5q0 -29 -19 -50.5t-56 -21.5zM239 757q-37 0 -56 19.5t-19 52.5q0 29 19 50.5t56 21.5q38 0 57 -19.5t19 -52.5q0 -29 -19 -50.5t-57 -21.5z" />
    <glyph glyph-name="Aring" unicode="&#xc5;" horiz-adv-x="698" 
d="M16 0l273 700h122l271 -700h-135l-150 398q-5 12 -13.5 38t-18.5 56.5t-18 57t-12 38.5l25 1q-6 -20 -14 -45t-17 -52t-17.5 -52t-15.5 -45l-150 -395h-130zM140 160l45 113h319l48 -113h-412zM348 677q-30 0 -57 15.5t-43.5 40.5t-16.5 55q0 32 16.5 58t43.5 41t57 15
q31 0 58 -15t43.5 -41t16.5 -58q0 -30 -16.5 -55t-43.5 -40.5t-58 -15.5zM348 744q20 0 33.5 13t13.5 31q0 22 -14 33.5t-33 11.5t-32.5 -12.5t-13.5 -32.5q0 -18 13.5 -31t32.5 -13z" />
    <glyph glyph-name="AE" unicode="&#xc6;" horiz-adv-x="1007" 
d="M0 0l488 700h449v-110h-328v-181h283v-108h-283v-191h328v-110h-450v149h-265l73 107h192v302l25 -8l-376 -550h-136z" />
    <glyph glyph-name="Ccedilla" unicode="&#xc7;" horiz-adv-x="684" 
d="M391 -10q-76 0 -139 26t-109 74.5t-71.5 115t-25.5 145.5q0 76 27 141t75 114t112 76t139 27q51 0 99 -15t88 -41.5t67 -61.5l-83 -91q-26 27 -53.5 45.5t-57 28t-60.5 9.5q-46 0 -86.5 -17t-70 -48t-46.5 -73.5t-17 -94.5q0 -53 16.5 -96t47 -74t73 -47.5t93.5 -16.5
q33 0 64 9t57.5 25.5t48.5 38.5l64 -103q-24 -27 -64 -49t-89.5 -34.5t-98.5 -12.5zM289 -245l-8 61q23 0 47.5 7t41.5 18.5t17 23.5q0 13 -15 20.5t-34 11.5t-34 4l-14 11l71 112h67l-44 -69q50 -9 75.5 -33.5t25.5 -60.5q0 -28 -18 -48t-47 -33.5t-63.5 -19.5t-67.5 -5z
" />
    <glyph glyph-name="Egrave" unicode="&#xc8;" horiz-adv-x="625" 
d="M94 0v700h458v-118h-330v-464h334v-118h-462zM154 300v116h347v-116h-347zM416 752l-211 77l52 99l192 -113z" />
    <glyph glyph-name="Eacute" unicode="&#xc9;" horiz-adv-x="625" 
d="M94 0v700h458v-118h-330v-464h334v-118h-462zM154 300v116h347v-116h-347zM257 752l-31 63l192 113l50 -99z" />
    <glyph glyph-name="Ecircumflex" unicode="&#xca;" horiz-adv-x="625" 
d="M94 0v700h458v-118h-330v-464h334v-118h-462zM154 300v116h347v-116h-347zM206 755l-41 42l128 103h79l128 -103l-41 -42l-141 67h29z" />
    <glyph glyph-name="Edieresis" unicode="&#xcb;" horiz-adv-x="625" 
d="M94 0v700h458v-118h-330v-464h334v-118h-462zM154 300v116h347v-116h-347zM442 757q-38 0 -57 19.5t-19 52.5q0 29 19 50.5t57 21.5q37 0 56 -19.5t19 -52.5q0 -29 -19 -50.5t-56 -21.5zM222 757q-37 0 -56 19.5t-19 52.5q0 29 19 50.5t56 21.5q38 0 57 -19.5t19 -52.5
q0 -29 -19 -50.5t-57 -21.5z" />
    <glyph glyph-name="Igrave" unicode="&#xcc;" horiz-adv-x="505" 
d="M73 0v115h115v470h-115v115h360v-115h-115v-470h115v-115h-360zM336 752l-211 77l52 99l192 -113z" />
    <glyph glyph-name="Iacute" unicode="&#xcd;" horiz-adv-x="505" 
d="M73 0v115h115v470h-115v115h360v-115h-115v-470h115v-115h-360zM177 752l-31 63l192 113l50 -99z" />
    <glyph glyph-name="Icircumflex" unicode="&#xce;" horiz-adv-x="505" 
d="M73 0v115h115v470h-115v115h360v-115h-115v-470h115v-115h-360zM126 755l-41 42l128 103h79l128 -103l-41 -42l-141 67h29z" />
    <glyph glyph-name="Idieresis" unicode="&#xcf;" horiz-adv-x="505" 
d="M73 0v115h115v470h-115v115h360v-115h-115v-470h115v-115h-360zM362 757q-38 0 -57 19.5t-19 52.5q0 29 19 50.5t57 21.5q37 0 56 -19.5t19 -52.5q0 -29 -19 -50.5t-56 -21.5zM142 757q-37 0 -56 19.5t-19 52.5q0 29 19 50.5t56 21.5q38 0 57 -19.5t19 -52.5
q0 -29 -19 -50.5t-57 -21.5z" />
    <glyph glyph-name="Eth" unicode="&#xd0;" horiz-adv-x="757" 
d="M44 300v100h288v-100h-288zM94 0v700h281q76 0 137.5 -25t106 -72t68 -111t23.5 -142t-23.5 -142.5t-67.5 -111t-106 -71.5t-138 -25h-281zM224 101l-10 19h156q49 0 87.5 16t65.5 46t41 72.5t14 95.5t-14 95.5t-41.5 72.5t-65.5 46t-87 16h-159l13 17v-496z" />
    <glyph glyph-name="Ntilde" unicode="&#xd1;" horiz-adv-x="798" 
d="M94 0v700h117l406 -547l-22 -4q-4 28 -7 57.5t-5.5 61.5t-4 67t-2.5 73.5t-1 81.5v210h129v-700h-119l-408 539l26 7q5 -56 8.5 -95.5t5.5 -68t3.5 -47.5t2 -34.5t0.5 -29.5v-271h-129zM474 768q-22 0 -44.5 7t-44.5 16q-17 7 -29 11t-22 4q-14 0 -22 -9.5t-8 -28.5h-85
q0 58 35 90.5t83 32.5q20 0 39.5 -6t40.5 -16q15 -6 27.5 -10t21.5 -4q14 0 21.5 10t6.5 26h84q0 -32 -12.5 -60.5t-36 -45.5t-55.5 -17z" />
    <glyph glyph-name="Ograve" unicode="&#xd2;" horiz-adv-x="793" 
d="M396 -10q-75 0 -139 27t-111.5 75.5t-73.5 114.5t-26 144t26 144t73.5 114.5t111.5 75.5t139 27q76 0 140 -27t111 -76t73 -114.5t26 -143.5q0 -77 -26 -143t-73 -115t-111 -76t-140 -27zM396 114q48 0 87.5 17.5t68.5 50t45.5 75.5t16.5 94t-16.5 94t-45.5 75.5
t-68.5 50t-87.5 17.5q-47 0 -87 -17.5t-69 -49.5t-45 -75t-16 -95q0 -51 16 -94.5t45 -75.5t69 -49.5t87 -17.5zM480 752l-211 77l52 99l192 -113z" />
    <glyph glyph-name="Oacute" unicode="&#xd3;" horiz-adv-x="793" 
d="M396 -10q-75 0 -139 27t-111.5 75.5t-73.5 114.5t-26 144t26 144t73.5 114.5t111.5 75.5t139 27q76 0 140 -27t111 -76t73 -114.5t26 -143.5q0 -77 -26 -143t-73 -115t-111 -76t-140 -27zM396 114q48 0 87.5 17.5t68.5 50t45.5 75.5t16.5 94t-16.5 94t-45.5 75.5
t-68.5 50t-87.5 17.5q-47 0 -87 -17.5t-69 -49.5t-45 -75t-16 -95q0 -51 16 -94.5t45 -75.5t69 -49.5t87 -17.5zM321 752l-31 63l192 113l50 -99z" />
    <glyph glyph-name="Ocircumflex" unicode="&#xd4;" horiz-adv-x="793" 
d="M396 -10q-75 0 -139 27t-111.5 75.5t-73.5 114.5t-26 144t26 144t73.5 114.5t111.5 75.5t139 27q76 0 140 -27t111 -76t73 -114.5t26 -143.5q0 -77 -26 -143t-73 -115t-111 -76t-140 -27zM396 114q48 0 87.5 17.5t68.5 50t45.5 75.5t16.5 94t-16.5 94t-45.5 75.5
t-68.5 50t-87.5 17.5q-47 0 -87 -17.5t-69 -49.5t-45 -75t-16 -95q0 -51 16 -94.5t45 -75.5t69 -49.5t87 -17.5zM269 755l-41 42l128 103h79l128 -103l-41 -42l-141 67h29z" />
    <glyph glyph-name="Otilde" unicode="&#xd5;" horiz-adv-x="793" 
d="M396 -10q-75 0 -139 27t-111.5 75.5t-73.5 114.5t-26 144t26 144t73.5 114.5t111.5 75.5t139 27q76 0 140 -27t111 -76t73 -114.5t26 -143.5q0 -77 -26 -143t-73 -115t-111 -76t-140 -27zM396 114q48 0 87.5 17.5t68.5 50t45.5 75.5t16.5 94t-16.5 94t-45.5 75.5
t-68.5 50t-87.5 17.5q-47 0 -87 -17.5t-69 -49.5t-45 -75t-16 -95q0 -51 16 -94.5t45 -75.5t69 -49.5t87 -17.5zM471 768q-22 0 -44.5 7t-44.5 16q-17 7 -29 11t-22 4q-14 0 -22 -9.5t-8 -28.5h-85q0 58 35 90.5t83 32.5q20 0 39.5 -6t40.5 -16q15 -6 27.5 -10t21.5 -4
q14 0 21.5 10t6.5 26h84q0 -32 -12.5 -60.5t-36 -45.5t-55.5 -17z" />
    <glyph glyph-name="Odieresis" unicode="&#xd6;" horiz-adv-x="793" 
d="M396 -10q-75 0 -139 27t-111.5 75.5t-73.5 114.5t-26 144t26 144t73.5 114.5t111.5 75.5t139 27q76 0 140 -27t111 -76t73 -114.5t26 -143.5q0 -77 -26 -143t-73 -115t-111 -76t-140 -27zM396 114q48 0 87.5 17.5t68.5 50t45.5 75.5t16.5 94t-16.5 94t-45.5 75.5
t-68.5 50t-87.5 17.5q-47 0 -87 -17.5t-69 -49.5t-45 -75t-16 -95q0 -51 16 -94.5t45 -75.5t69 -49.5t87 -17.5zM506 757q-38 0 -57 19.5t-19 52.5q0 29 19 50.5t57 21.5q37 0 56 -19.5t19 -52.5q0 -29 -19 -50.5t-56 -21.5zM286 757q-37 0 -56 19.5t-19 52.5q0 29 19 50.5
t56 21.5q38 0 57 -19.5t19 -52.5q0 -29 -19 -50.5t-57 -21.5z" />
    <glyph glyph-name="multiply" unicode="&#xd7;" horiz-adv-x="501" 
d="M390 69l-354 352l75 73l354 -353zM111 63l-72 77l352 354l72 -76z" />
    <glyph glyph-name="Oslash" unicode="&#xd8;" horiz-adv-x="783" 
d="M129 -33l-63 53l589 721l68 -47zM396 -10q-76 0 -140 27t-111.5 75.5t-73 114.5t-25.5 144t25.5 144t73 114.5t111.5 75.5t139 27q76 0 140 -27t111.5 -76t73 -114.5t25.5 -143.5q0 -77 -25.5 -143t-73 -115t-111.5 -76t-139 -27zM395 114q48 0 87.5 17.5t68.5 50
t45.5 75.5t16.5 94t-16.5 94t-45.5 75.5t-68.5 50t-87.5 17.5q-47 0 -86.5 -17.5t-69 -49.5t-45.5 -75t-16 -95q0 -51 16 -94.5t45.5 -75.5t69 -49.5t86.5 -17.5z" />
    <glyph glyph-name="Ugrave" unicode="&#xd9;" horiz-adv-x="749" 
d="M374 -6q-83 0 -148 35.5t-102.5 98t-37.5 141.5v432h131v-423q0 -47 21.5 -83.5t57.5 -58.5t78 -22q46 0 83 22t58.5 58.5t21.5 83.5v423h126v-432q0 -79 -37.5 -141.5t-102.5 -98t-149 -35.5zM458 752l-211 77l52 99l192 -113z" />
    <glyph glyph-name="Uacute" unicode="&#xda;" horiz-adv-x="749" 
d="M374 -6q-83 0 -148 35.5t-102.5 98t-37.5 141.5v432h131v-423q0 -47 21.5 -83.5t57.5 -58.5t78 -22q46 0 83 22t58.5 58.5t21.5 83.5v423h126v-432q0 -79 -37.5 -141.5t-102.5 -98t-149 -35.5zM299 752l-31 63l192 113l50 -99z" />
    <glyph glyph-name="Ucircumflex" unicode="&#xdb;" horiz-adv-x="749" 
d="M374 -6q-83 0 -148 35.5t-102.5 98t-37.5 141.5v432h131v-423q0 -47 21.5 -83.5t57.5 -58.5t78 -22q46 0 83 22t58.5 58.5t21.5 83.5v423h126v-432q0 -79 -37.5 -141.5t-102.5 -98t-149 -35.5zM248 755l-41 42l128 103h79l128 -103l-41 -42l-141 67h29z" />
    <glyph glyph-name="Udieresis" unicode="&#xdc;" horiz-adv-x="749" 
d="M374 -6q-83 0 -148 35.5t-102.5 98t-37.5 141.5v432h131v-423q0 -47 21.5 -83.5t57.5 -58.5t78 -22q46 0 83 22t58.5 58.5t21.5 83.5v423h126v-432q0 -79 -37.5 -141.5t-102.5 -98t-149 -35.5zM484 757q-38 0 -57 19.5t-19 52.5q0 29 19 50.5t57 21.5q37 0 56 -19.5
t19 -52.5q0 -29 -19 -50.5t-56 -21.5zM264 757q-37 0 -56 19.5t-19 52.5q0 29 19 50.5t56 21.5q38 0 57 -19.5t19 -52.5q0 -29 -19 -50.5t-57 -21.5z" />
    <glyph glyph-name="Yacute" unicode="&#xdd;" horiz-adv-x="670" 
d="M280 0v349l7 -49l-283 400h152l216 -310l-47 3l195 307h146l-271 -411l15 68v-357h-130zM260 752l-31 63l192 113l50 -99z" />
    <glyph glyph-name="Thorn" unicode="&#xde;" horiz-adv-x="644" 
d="M94 0v700h130v-122h161q60 0 108.5 -29t77.5 -79t29 -112t-29 -113t-77.5 -81t-108.5 -30h-161v-134h-130zM224 255h152q25 0 45.5 13.5t33 37t12.5 52.5t-12.5 51.5t-33 35.5t-45.5 13h-152v-203z" />
    <glyph glyph-name="germandbls" unicode="&#xdf;" horiz-adv-x="665" 
d="M424 -10q-46 0 -81 15t-61 46l56 75q24 -21 44 -29.5t41 -8.5q41 0 65 29.5t24 75.5q0 36 -10.5 64t-32.5 50t-53 38t-72 27v72q26 11 44.5 23.5t31 25.5t18.5 27.5t6 30.5q0 35 -25.5 54.5t-70.5 19.5q-51 0 -80 -34t-29 -90v-501h-119v499q0 70 28 123t80.5 82.5
t123.5 29.5q62 0 108.5 -20.5t73 -57t26.5 -85.5q0 -29 -13.5 -57t-37.5 -51t-56 -37l-2 15q40 -12 72.5 -35t56.5 -53.5t37 -68.5t13 -81q0 -61 -27 -109t-73.5 -76t-105.5 -28zM38 390v109h141v-109h-141z" />
    <glyph glyph-name="agrave" unicode="&#xe0;" horiz-adv-x="642" 
d="M271 -10q-65 0 -118 36t-85 98t-32 141t32 141t87 97t124 35q40 0 73 -11.5t58 -32.5t41.5 -48t22.5 -58l-27 7v132h124v-527h-125v126l29 5q-7 -27 -25.5 -52.5t-46 -45t-61 -31.5t-71.5 -12zM305 99q43 0 76 21t51.5 58.5t18.5 86.5q0 48 -18.5 85t-51.5 58t-76 21
t-75.5 -21t-50.5 -58t-18 -85q0 -49 18 -86.5t50.5 -58.5t75.5 -21zM375 600l-185 100l68 90l156 -131z" />
    <glyph glyph-name="aacute" unicode="&#xe1;" horiz-adv-x="642" 
d="M271 -10q-65 0 -118 36t-85 98t-32 141t32 141t87 97t124 35q40 0 73 -11.5t58 -32.5t41.5 -48t22.5 -58l-27 7v132h124v-527h-125v126l29 5q-7 -27 -25.5 -52.5t-46 -45t-61 -31.5t-71.5 -12zM305 99q43 0 76 21t51.5 58.5t18.5 86.5q0 48 -18.5 85t-51.5 58t-76 21
t-75.5 -21t-50.5 -58t-18 -85q0 -49 18 -86.5t50.5 -58.5t75.5 -21zM249 600l-39 59l156 130l68 -89z" />
    <glyph glyph-name="acircumflex" unicode="&#xe2;" horiz-adv-x="642" 
d="M271 -10q-65 0 -118 36t-85 98t-32 141t32 141t87 97t124 35q40 0 73 -11.5t58 -32.5t41.5 -48t22.5 -58l-27 7v132h124v-527h-125v126l29 5q-7 -27 -25.5 -52.5t-46 -45t-61 -31.5t-71.5 -12zM305 99q43 0 76 21t51.5 58.5t18.5 86.5q0 48 -18.5 85t-51.5 58t-76 21
t-75.5 -21t-50.5 -58t-18 -85q0 -49 18 -86.5t50.5 -58.5t75.5 -21zM197 605l-45 39l125 119h90l125 -119l-45 -39l-140 77h30z" />
    <glyph glyph-name="atilde" unicode="&#xe3;" horiz-adv-x="642" 
d="M271 -10q-65 0 -118 36t-85 98t-32 141t32 141t87 97t124 35q40 0 73 -11.5t58 -32.5t41.5 -48t22.5 -58l-27 7v132h124v-527h-125v126l29 5q-7 -27 -25.5 -52.5t-46 -45t-61 -31.5t-71.5 -12zM305 99q43 0 76 21t51.5 58.5t18.5 86.5q0 48 -18.5 85t-51.5 58t-76 21
t-75.5 -21t-50.5 -58t-18 -85q0 -49 18 -86.5t50.5 -58.5t75.5 -21zM379 615q-19 0 -34 7t-33 21q-18 16 -28 22t-18 6q-13 0 -23.5 -13.5t-14.5 -41.5l-75 11q1 52 31 89t81 37q19 0 33.5 -7t32.5 -20q18 -14 27.5 -21t18.5 -7q14 0 24 13.5t13 40.5l76 -11
q-1 -33 -15 -62.5t-38.5 -46.5t-57.5 -17z" />
    <glyph glyph-name="adieresis" unicode="&#xe4;" horiz-adv-x="642" 
d="M271 -10q-65 0 -118 36t-85 98t-32 141t32 141t87 97t124 35q40 0 73 -11.5t58 -32.5t41.5 -48t22.5 -58l-27 7v132h124v-527h-125v126l29 5q-7 -27 -25.5 -52.5t-46 -45t-61 -31.5t-71.5 -12zM305 99q43 0 76 21t51.5 58.5t18.5 86.5q0 48 -18.5 85t-51.5 58t-76 21
t-75.5 -21t-50.5 -58t-18 -85q0 -49 18 -86.5t50.5 -58.5t75.5 -21zM428 638q-36 0 -55.5 19t-19.5 53q0 32 20 52.5t55 20.5q36 0 56 -19t20 -54q0 -32 -20.5 -52t-55.5 -20zM214 638q-36 0 -55.5 19t-19.5 53q0 32 20 52.5t55 20.5q36 0 55.5 -19t19.5 -54q0 -32 -20 -52
t-55 -20z" />
    <glyph glyph-name="aring" unicode="&#xe5;" horiz-adv-x="642" 
d="M271 -10q-65 0 -118 36t-85 98t-32 141t32 141t87 97t124 35q40 0 73 -11.5t58 -32.5t41.5 -48t22.5 -58l-27 7v132h124v-527h-125v126l29 5q-7 -27 -25.5 -52.5t-46 -45t-61 -31.5t-71.5 -12zM305 99q43 0 76 21t51.5 58.5t18.5 86.5q0 48 -18.5 85t-51.5 58t-76 21
t-75.5 -21t-50.5 -58t-18 -85q0 -49 18 -86.5t50.5 -58.5t75.5 -21zM321 604q-29 0 -55 15t-42 40t-16 54q0 30 15.5 55t41.5 40t56 15q31 0 57 -15t41.5 -40t15.5 -55q0 -29 -15.5 -54t-41.5 -40t-57 -15zM321 670q19 0 32.5 12.5t13.5 30.5q0 19 -13.5 31t-32.5 12
t-32 -12t-13 -31q0 -18 13.5 -30.5t31.5 -12.5z" />
    <glyph glyph-name="ae" unicode="&#xe6;" horiz-adv-x="899" 
d="M215 -10q-51 0 -91 20t-64 55.5t-24 83.5q0 41 15.5 73t45.5 53t74 31.5t102 10.5h482l-13 -15v23q-2 30 -19 53.5t-43.5 37t-57.5 13.5q-47 0 -79 -18.5t-48.5 -54t-16.5 -88.5q0 -49 23.5 -87t63.5 -59.5t93 -21.5q37 0 69 12t68 43l57 -87q-27 -24 -61.5 -41.5
t-71.5 -27t-74 -9.5q-83 0 -145.5 34t-97 95t-34.5 140q0 61 19.5 112t53.5 88.5t80.5 58t99.5 20.5q70 -1 125 -34.5t86 -92t31 -133.5l-1 -45h-596q-26 0 -47 -5t-35.5 -15.5t-21.5 -24.5t-7 -33q0 -20 10 -35t27 -23.5t40 -8.5q32 0 61.5 11.5t52.5 31t36 44.5l47 -72
q-22 -34 -56 -59.5t-74.5 -39.5t-83.5 -14zM367 254v94q0 18 -8 33.5t-22 25.5t-33 16t-41 6q-42 0 -75 -17t-60 -52l-77 76q28 32 62.5 55t74.5 35t85 12q47 0 84.5 -10t64.5 -30t41 -49t14 -68v-122z" />
    <glyph glyph-name="ccedilla" unicode="&#xe7;" horiz-adv-x="539" 
d="M298 -10q-74 0 -133 36t-93 98t-34 140t34 140t93 98t133 36q71 0 129 -27t90 -75l-68 -82q-15 21 -38 38t-49 27t-52 10q-44 0 -78.5 -21.5t-54.5 -59t-20 -84.5t20.5 -84t55.5 -59t78 -22q26 0 50.5 8.5t46.5 24.5t41 40l68 -83q-34 -44 -93.5 -71.5t-125.5 -27.5z
M204 -245l-7 61q22 0 47 7t42 18.5t17 23.5q0 13 -15 20.5t-34 11.5t-34 4l-15 11l71 112h67l-44 -69q51 -9 76 -33.5t25 -60.5q0 -28 -18 -48t-47 -33.5t-63.5 -19.5t-67.5 -5z" />
    <glyph glyph-name="egrave" unicode="&#xe8;" horiz-adv-x="586" 
d="M319 -10q-83 0 -146.5 35t-99 95.5t-35.5 138.5q0 62 20 113t55.5 88.5t85 58t108.5 20.5q52 0 97 -20t78 -54.5t50.5 -82t16.5 -103.5l-1 -43h-427l-23 84h347l-16 -17v22q-3 31 -20 54.5t-43.5 37t-58.5 13.5q-49 0 -82.5 -19t-50.5 -54.5t-17 -88.5q0 -51 21.5 -89
t61 -58.5t92.5 -20.5q37 0 68 12t67 43l61 -85q-27 -25 -61.5 -42.5t-72.5 -27.5t-75 -10zM360 600l-185 100l68 90l156 -131z" />
    <glyph glyph-name="eacute" unicode="&#xe9;" horiz-adv-x="586" 
d="M319 -10q-83 0 -146.5 35t-99 95.5t-35.5 138.5q0 62 20 113t55.5 88.5t85 58t108.5 20.5q52 0 97 -20t78 -54.5t50.5 -82t16.5 -103.5l-1 -43h-427l-23 84h347l-16 -17v22q-3 31 -20 54.5t-43.5 37t-58.5 13.5q-49 0 -82.5 -19t-50.5 -54.5t-17 -88.5q0 -51 21.5 -89
t61 -58.5t92.5 -20.5q37 0 68 12t67 43l61 -85q-27 -25 -61.5 -42.5t-72.5 -27.5t-75 -10zM234 600l-39 59l156 130l68 -89z" />
    <glyph glyph-name="ecircumflex" unicode="&#xea;" horiz-adv-x="586" 
d="M319 -10q-83 0 -146.5 35t-99 95.5t-35.5 138.5q0 62 20 113t55.5 88.5t85 58t108.5 20.5q52 0 97 -20t78 -54.5t50.5 -82t16.5 -103.5l-1 -43h-427l-23 84h347l-16 -17v22q-3 31 -20 54.5t-43.5 37t-58.5 13.5q-49 0 -82.5 -19t-50.5 -54.5t-17 -88.5q0 -51 21.5 -89
t61 -58.5t92.5 -20.5q37 0 68 12t67 43l61 -85q-27 -25 -61.5 -42.5t-72.5 -27.5t-75 -10zM182 605l-45 39l125 119h90l125 -119l-45 -39l-140 77h30z" />
    <glyph glyph-name="edieresis" unicode="&#xeb;" horiz-adv-x="586" 
d="M319 -10q-83 0 -146.5 35t-99 95.5t-35.5 138.5q0 62 20 113t55.5 88.5t85 58t108.5 20.5q52 0 97 -20t78 -54.5t50.5 -82t16.5 -103.5l-1 -43h-427l-23 84h347l-16 -17v22q-3 31 -20 54.5t-43.5 37t-58.5 13.5q-49 0 -82.5 -19t-50.5 -54.5t-17 -88.5q0 -51 21.5 -89
t61 -58.5t92.5 -20.5q37 0 68 12t67 43l61 -85q-27 -25 -61.5 -42.5t-72.5 -27.5t-75 -10zM413 638q-36 0 -55.5 19t-19.5 53q0 32 20 52.5t55 20.5q36 0 56 -19t20 -54q0 -32 -20.5 -52t-55.5 -20zM199 638q-36 0 -55.5 19t-19.5 53q0 32 20 52.5t55 20.5q36 0 55.5 -19
t19.5 -54q0 -32 -20 -52t-55 -20z" />
    <glyph glyph-name="igrave" unicode="&#xec;" horiz-adv-x="259" 
d="M68 0v527h123v-527h-123zM182 600l-185 100l68 90l156 -131z" />
    <glyph glyph-name="iacute" unicode="&#xed;" horiz-adv-x="259" 
d="M68 0v527h123v-527h-123zM56 600l-39 59l156 130l68 -89z" />
    <glyph glyph-name="icircumflex" unicode="&#xee;" horiz-adv-x="259" 
d="M68 0v527h123v-527h-123zM4 605l-45 39l125 119h90l125 -119l-45 -39l-140 77h30z" />
    <glyph glyph-name="idieresis" unicode="&#xef;" horiz-adv-x="259" 
d="M68 0v527h123v-527h-123zM235 638q-36 0 -55.5 19t-19.5 53q0 32 20 52.5t55 20.5q36 0 56 -19t20 -54q0 -32 -20.5 -52t-55.5 -20zM21 638q-36 0 -55.5 19t-19.5 53q0 32 20 52.5t55 20.5q36 0 55.5 -19t19.5 -54q0 -32 -20 -52t-55 -20z" />
    <glyph glyph-name="eth" unicode="&#xf0;" horiz-adv-x="582" 
d="M291 -7q-72 0 -129 35.5t-90.5 96t-33.5 135.5q0 54 19.5 101.5t53.5 84t77.5 57.5t90.5 21q50 0 89.5 -21.5t66 -61t37.5 -93.5l-66 31q-2 45 -12 82t-28 67t-45 53t-64.5 41.5t-87.5 33.5l44 86q60 -14 111.5 -42.5t92 -69.5t69 -94t43.5 -116.5t15 -136.5
q0 -85 -32 -150.5t-89.5 -102.5t-131.5 -37zM291 103q39 0 70 21t49.5 57t18.5 81q0 43 -18.5 78.5t-49.5 56.5t-70 21q-38 0 -69.5 -20.5t-50 -56t-18.5 -79.5q0 -45 18.5 -81t50 -57t69.5 -21zM154 524l-13 65l150 39l56 22l146 33l18 -66l-113 -26l-42 -19z" />
    <glyph glyph-name="ntilde" unicode="&#xf1;" horiz-adv-x="609" 
d="M72 0v527h120l2 -108l-23 -12q10 36 39 65.5t69 47.5t82 18q60 0 100.5 -24t61 -72t20.5 -120v-322h-123v313q0 40 -11 66.5t-34 39t-56 11.5q-27 0 -49.5 -8.5t-39 -24t-26 -35.5t-9.5 -44v-318h-61h-33.5h-28.5zM392 615q-19 0 -34 7t-33 21q-18 16 -28 22t-18 6
q-13 0 -23.5 -13.5t-14.5 -41.5l-75 11q1 52 31 89t81 37q19 0 33.5 -7t32.5 -20q18 -14 27.5 -21t18.5 -7q14 0 24 13.5t13 40.5l76 -11q-1 -33 -15 -62.5t-38.5 -46.5t-57.5 -17z" />
    <glyph glyph-name="ograve" unicode="&#xf2;" horiz-adv-x="624" 
d="M313 -10q-79 0 -141 35.5t-98 97.5t-36 141t36 141t98 97.5t141 35.5q78 0 140 -35.5t97.5 -97.5t35.5 -141t-35.5 -141t-97.5 -97.5t-140 -35.5zM313 99q43 0 76.5 22t53 59t18.5 84q1 48 -18.5 85t-53 58.5t-76.5 21.5t-77.5 -21.5t-53.5 -59t-19 -84.5t19 -84
t53.5 -59t77.5 -22zM365 600l-185 100l68 90l156 -131z" />
    <glyph glyph-name="oacute" unicode="&#xf3;" horiz-adv-x="624" 
d="M313 -10q-79 0 -141 35.5t-98 97.5t-36 141t36 141t98 97.5t141 35.5q78 0 140 -35.5t97.5 -97.5t35.5 -141t-35.5 -141t-97.5 -97.5t-140 -35.5zM313 99q43 0 76.5 22t53 59t18.5 84q1 48 -18.5 85t-53 58.5t-76.5 21.5t-77.5 -21.5t-53.5 -59t-19 -84.5t19 -84
t53.5 -59t77.5 -22zM239 600l-39 59l156 130l68 -89z" />
    <glyph glyph-name="ocircumflex" unicode="&#xf4;" horiz-adv-x="624" 
d="M313 -10q-79 0 -141 35.5t-98 97.5t-36 141t36 141t98 97.5t141 35.5q78 0 140 -35.5t97.5 -97.5t35.5 -141t-35.5 -141t-97.5 -97.5t-140 -35.5zM313 99q43 0 76.5 22t53 59t18.5 84q1 48 -18.5 85t-53 58.5t-76.5 21.5t-77.5 -21.5t-53.5 -59t-19 -84.5t19 -84
t53.5 -59t77.5 -22zM187 605l-45 39l125 119h90l125 -119l-45 -39l-140 77h30z" />
    <glyph glyph-name="otilde" unicode="&#xf5;" horiz-adv-x="624" 
d="M313 -10q-79 0 -141 35.5t-98 97.5t-36 141t36 141t98 97.5t141 35.5q78 0 140 -35.5t97.5 -97.5t35.5 -141t-35.5 -141t-97.5 -97.5t-140 -35.5zM313 99q43 0 76.5 22t53 59t18.5 84q1 48 -18.5 85t-53 58.5t-76.5 21.5t-77.5 -21.5t-53.5 -59t-19 -84.5t19 -84
t53.5 -59t77.5 -22zM370 615q-19 0 -34 7t-33 21q-18 16 -28 22t-18 6q-13 0 -23.5 -13.5t-14.5 -41.5l-75 11q1 52 31 89t81 37q19 0 33.5 -7t32.5 -20q18 -14 27.5 -21t18.5 -7q14 0 24 13.5t13 40.5l76 -11q-1 -33 -15 -62.5t-38.5 -46.5t-57.5 -17z" />
    <glyph glyph-name="odieresis" unicode="&#xf6;" horiz-adv-x="624" 
d="M313 -10q-79 0 -141 35.5t-98 97.5t-36 141t36 141t98 97.5t141 35.5q78 0 140 -35.5t97.5 -97.5t35.5 -141t-35.5 -141t-97.5 -97.5t-140 -35.5zM313 99q43 0 76.5 22t53 59t18.5 84q1 48 -18.5 85t-53 58.5t-76.5 21.5t-77.5 -21.5t-53.5 -59t-19 -84.5t19 -84
t53.5 -59t77.5 -22zM419 638q-36 0 -55.5 19t-19.5 53q0 32 20 52.5t55 20.5q36 0 56 -19t20 -54q0 -32 -20.5 -52t-55.5 -20zM205 638q-36 0 -55.5 19t-19.5 53q0 32 20 52.5t55 20.5q36 0 55.5 -19t19.5 -54q0 -32 -20 -52t-55 -20z" />
    <glyph glyph-name="divide" unicode="&#xf7;" horiz-adv-x="597" 
d="M48 210v104h502v-104h-502zM294 1q-21 0 -38 9.5t-27 26t-10 36.5q0 21 10 37.5t27 26t38 9.5t38 -9.5t26.5 -26t9.5 -37.5q0 -20 -9.5 -36t-26.5 -26t-38 -10zM294 375q-21 0 -38 9.5t-27 26t-10 36.5t10 36.5t27 26.5t38 10t38 -10t26.5 -26.5t9.5 -36.5t-10 -36
t-26.5 -26t-37.5 -10z" />
    <glyph glyph-name="oslash" unicode="&#xf8;" horiz-adv-x="624" 
d="M112 -35l-66 48l456 537l67 -49zM313 -10q-79 0 -141 35.5t-98 97.5t-36 141t36 141t98 97.5t141 35.5q78 0 140 -35.5t97.5 -97.5t35.5 -141t-35.5 -141t-97.5 -97.5t-140 -35.5zM313 99q43 0 76.5 22t53 59t18.5 84q1 48 -18.5 85t-53 58.5t-76.5 21.5t-77.5 -21.5
t-53.5 -59t-19 -84.5t19 -84t53.5 -59t77.5 -22z" />
    <glyph glyph-name="ugrave" unicode="&#xf9;" horiz-adv-x="618" 
d="M255 -10q-57 0 -99 25.5t-64 73t-22 113.5v325h123v-299q0 -42 13 -71.5t38 -45.5t60 -16q26 0 47.5 8.5t37.5 24t25 37t9 46.5v316h123v-527h-120l-2 110l22 12q-12 -38 -40.5 -67.5t-67.5 -47t-83 -17.5zM363 600l-185 100l68 90l156 -131z" />
    <glyph glyph-name="uacute" unicode="&#xfa;" horiz-adv-x="618" 
d="M255 -10q-57 0 -99 25.5t-64 73t-22 113.5v325h123v-299q0 -42 13 -71.5t38 -45.5t60 -16q26 0 47.5 8.5t37.5 24t25 37t9 46.5v316h123v-527h-120l-2 110l22 12q-12 -38 -40.5 -67.5t-67.5 -47t-83 -17.5zM237 600l-39 59l156 130l68 -89z" />
    <glyph glyph-name="ucircumflex" unicode="&#xfb;" horiz-adv-x="618" 
d="M255 -10q-57 0 -99 25.5t-64 73t-22 113.5v325h123v-299q0 -42 13 -71.5t38 -45.5t60 -16q26 0 47.5 8.5t37.5 24t25 37t9 46.5v316h123v-527h-120l-2 110l22 12q-12 -38 -40.5 -67.5t-67.5 -47t-83 -17.5zM185 605l-45 39l125 119h90l125 -119l-45 -39l-140 77h30z" />
    <glyph glyph-name="udieresis" unicode="&#xfc;" horiz-adv-x="618" 
d="M255 -10q-57 0 -99 25.5t-64 73t-22 113.5v325h123v-299q0 -42 13 -71.5t38 -45.5t60 -16q26 0 47.5 8.5t37.5 24t25 37t9 46.5v316h123v-527h-120l-2 110l22 12q-12 -38 -40.5 -67.5t-67.5 -47t-83 -17.5zM416 638q-36 0 -55.5 19t-19.5 53q0 32 20 52.5t55 20.5
q36 0 56 -19t20 -54q0 -32 -20.5 -52t-55.5 -20zM202 638q-36 0 -55.5 19t-19.5 53q0 32 20 52.5t55 20.5q36 0 55.5 -19t19.5 -54q0 -32 -20 -52t-55 -20z" />
    <glyph glyph-name="yacute" unicode="&#xfd;" horiz-adv-x="595" 
d="M152 -230l112 259l1 -82l-260 580h142l145 -344q7 -13 14 -34.5t12 -42.5l-25 -8q7 19 15 40.5t15 44.5l124 344h143l-220 -527l-90 -230h-128zM225 600l-39 59l156 130l68 -89z" />
    <glyph glyph-name="thorn" unicode="&#xfe;" horiz-adv-x="641" 
d="M72 -220v960h124v-333l-22 9q6 31 34 58.5t68.5 44.5t84.5 17q53 0 96.5 -20t76.5 -56.5t51 -86t18 -109.5q0 -79 -31.5 -140.5t-86 -97t-122.5 -35.5q-46 0 -88.5 18t-72 47t-36.5 61l30 14v-351h-124zM338 100q42 0 75 21t51.5 58t18.5 85t-18 84.5t-51 57.5t-76 21
q-44 0 -76.5 -20.5t-51.5 -57.5t-19 -85t19 -85t51.5 -58t76.5 -21z" />
    <glyph glyph-name="ydieresis" unicode="&#xff;" horiz-adv-x="595" 
d="M152 -230l112 259l1 -82l-260 580h142l145 -344q7 -13 14 -34.5t12 -42.5l-25 -8q7 19 15 40.5t15 44.5l124 344h143l-220 -527l-90 -230h-128zM405 638q-36 0 -55.5 19t-19.5 53q0 32 20 52.5t55 20.5q36 0 56 -19t20 -54q0 -32 -20.5 -52t-55.5 -20zM191 638
q-36 0 -55.5 19t-19.5 53q0 32 20 52.5t55 20.5q36 0 55.5 -19t19.5 -54q0 -32 -20 -52t-55 -20z" />
    <glyph glyph-name="Amacron" unicode="&#x100;" horiz-adv-x="698" 
d="M16 0l273 700h122l271 -700h-135l-150 398q-5 12 -13.5 38t-18.5 56.5t-18 57t-12 38.5l25 1q-6 -20 -14 -45t-17 -52t-17.5 -52t-15.5 -45l-150 -395h-130zM140 160l45 113h319l48 -113h-412zM178 788v84h341v-84h-341z" />
    <glyph glyph-name="amacron" unicode="&#x101;" horiz-adv-x="642" 
d="M271 -10q-65 0 -118 36t-85 98t-32 141t32 141t87 97t124 35q40 0 73 -11.5t58 -32.5t41.5 -48t22.5 -58l-27 7v132h124v-527h-125v126l29 5q-7 -27 -25.5 -52.5t-46 -45t-61 -31.5t-71.5 -12zM305 99q43 0 76 21t51.5 58.5t18.5 86.5q0 48 -18.5 85t-51.5 58t-76 21
t-75.5 -21t-50.5 -58t-18 -85q0 -49 18 -86.5t50.5 -58.5t75.5 -21zM171 641v84h302v-84h-302z" />
    <glyph glyph-name="Abreve" unicode="&#x102;" horiz-adv-x="698" 
d="M16 0l273 700h122l271 -700h-135l-150 398q-5 12 -13.5 38t-18.5 56.5t-18 57t-12 38.5l25 1q-6 -20 -14 -45t-17 -52t-17.5 -52t-15.5 -45l-150 -395h-130zM140 160l45 113h319l48 -113h-412zM349 753q-42 0 -77 19t-58.5 50.5t-32.5 70.5l84 12q11 -25 33 -44t51 -19
t51 19t33 44l84 -12q-8 -39 -32 -70.5t-58.5 -50.5t-77.5 -19z" />
    <glyph glyph-name="abreve" unicode="&#x103;" horiz-adv-x="642" 
d="M271 -10q-65 0 -118 36t-85 98t-32 141t32 141t87 97t124 35q40 0 73 -11.5t58 -32.5t41.5 -48t22.5 -58l-27 7v132h124v-527h-125v126l29 5q-7 -27 -25.5 -52.5t-46 -45t-61 -31.5t-71.5 -12zM305 99q43 0 76 21t51.5 58.5t18.5 86.5q0 48 -18.5 85t-51.5 58t-76 21
t-75.5 -21t-50.5 -58t-18 -85q0 -49 18 -86.5t50.5 -58.5t75.5 -21zM322 593q-66 0 -110 42t-58 114l84 12q12 -36 34 -57.5t50 -21.5t50 21.5t34 57.5l84 -12q-14 -72 -58 -114t-110 -42z" />
    <glyph glyph-name="Aogonek" unicode="&#x104;" horiz-adv-x="698" 
d="M16 0l273 700h122l271 -700h-135l-150 398q-5 12 -13.5 38t-18.5 56.5t-18 57t-12 38.5l25 1q-6 -20 -14 -45t-17 -52t-17.5 -52t-15.5 -45l-150 -395h-130zM140 160l45 113h319l48 -113h-412zM579 -204q-31 0 -56.5 14t-41 37.5t-15.5 52.5q0 26 11 48.5t32 42t50 34.5
t66 26l41 -51q-27 -5 -51 -18.5t-37.5 -30.5t-13.5 -35q0 -15 8.5 -24.5t23.5 -9.5q10 0 18.5 6.5t16.5 18.5l61 -44q-12 -28 -43.5 -47.5t-69.5 -19.5z" />
    <glyph glyph-name="aogonek" unicode="&#x105;" horiz-adv-x="642" 
d="M271 -10q-65 0 -118 36t-85 98t-32 141t32 141t87 97t124 35q40 0 73 -11.5t58 -32.5t41.5 -48t22.5 -58l-27 7v132h124v-527h-125v126l29 5q-7 -27 -25.5 -52.5t-46 -45t-61 -31.5t-71.5 -12zM305 99q43 0 76 21t51.5 58.5t18.5 86.5q0 48 -18.5 85t-51.5 58t-76 21
t-75.5 -21t-50.5 -58t-18 -85q0 -49 18 -86.5t50.5 -58.5t75.5 -21zM469 -204q-31 0 -56.5 14.5t-41 38.5t-15.5 53q0 25 11 46t32 38.5t52.5 31.5t72.5 25l36 -43q-29 -6 -53.5 -19.5t-38.5 -30.5t-14 -34q0 -15 9 -24.5t23 -9.5q10 0 18.5 6.5t16.5 18.5l61 -44
q-8 -17 -24 -32.5t-38 -25t-51 -9.5z" />
    <glyph glyph-name="Cacute" unicode="&#x106;" horiz-adv-x="684" 
d="M391 -10q-76 0 -139 26t-109 74.5t-71.5 115t-25.5 145.5q0 76 27 141t75 114t112 76t139 27q51 0 99 -15t88 -41.5t67 -61.5l-83 -91q-26 27 -53.5 45.5t-57 28t-60.5 9.5q-46 0 -86.5 -17t-70 -48t-46.5 -73.5t-17 -94.5q0 -53 16.5 -96t47 -74t73 -47.5t93.5 -16.5
q33 0 64 9t57.5 25.5t48.5 38.5l64 -103q-24 -27 -64 -49t-89.5 -34.5t-98.5 -12.5zM322 752l-31 63l192 113l50 -99z" />
    <glyph glyph-name="cacute" unicode="&#x107;" horiz-adv-x="539" 
d="M298 -10q-74 0 -133 36t-93 98t-34 140t34 140t93 98t133 36q71 0 129 -27t90 -75l-68 -82q-15 21 -38 38t-49 27t-52 10q-44 0 -78.5 -21.5t-54.5 -59t-20 -84.5t20.5 -84t55.5 -59t78 -22q26 0 50.5 8.5t46.5 24.5t41 40l68 -83q-34 -44 -93.5 -71.5t-125.5 -27.5z
M225 600l-39 59l156 130l68 -89z" />
    <glyph glyph-name="Ccircumflex" unicode="&#x108;" horiz-adv-x="684" 
d="M391 -10q-76 0 -139 26t-109 74.5t-71.5 115t-25.5 145.5q0 76 27 141t75 114t112 76t139 27q51 0 99 -15t88 -41.5t67 -61.5l-83 -91q-26 27 -53.5 45.5t-57 28t-60.5 9.5q-46 0 -86.5 -17t-70 -48t-46.5 -73.5t-17 -94.5q0 -53 16.5 -96t47 -74t73 -47.5t93.5 -16.5
q33 0 64 9t57.5 25.5t48.5 38.5l64 -103q-24 -27 -64 -49t-89.5 -34.5t-98.5 -12.5zM271 755l-41 42l128 103h79l128 -103l-41 -42l-141 67h29z" />
    <glyph glyph-name="ccircumflex" unicode="&#x109;" horiz-adv-x="539" 
d="M298 -10q-74 0 -133 36t-93 98t-34 140t34 140t93 98t133 36q71 0 129 -27t90 -75l-68 -82q-15 21 -38 38t-49 27t-52 10q-44 0 -78.5 -21.5t-54.5 -59t-20 -84.5t20.5 -84t55.5 -59t78 -22q26 0 50.5 8.5t46.5 24.5t41 40l68 -83q-34 -44 -93.5 -71.5t-125.5 -27.5z
M173 605l-45 39l125 119h90l125 -119l-45 -39l-140 77h30z" />
    <glyph glyph-name="Cdotaccent" unicode="&#x10a;" horiz-adv-x="684" 
d="M391 -10q-76 0 -139 26t-109 74.5t-71.5 115t-25.5 145.5q0 76 27 141t75 114t112 76t139 27q51 0 99 -15t88 -41.5t67 -61.5l-83 -91q-26 27 -53.5 45.5t-57 28t-60.5 9.5q-46 0 -86.5 -17t-70 -48t-46.5 -73.5t-17 -94.5q0 -53 16.5 -96t47 -74t73 -47.5t93.5 -16.5
q33 0 64 9t57.5 25.5t48.5 38.5l64 -103q-24 -27 -64 -49t-89.5 -34.5t-98.5 -12.5zM397 758q-39 0 -58.5 19.5t-19.5 51.5q0 29 19.5 50.5t58.5 21.5t58.5 -19.5t19.5 -52.5q0 -28 -19.5 -49.5t-58.5 -21.5z" />
    <glyph glyph-name="cdotaccent" unicode="&#x10b;" horiz-adv-x="539" 
d="M298 -10q-74 0 -133 36t-93 98t-34 140t34 140t93 98t133 36q71 0 129 -27t90 -75l-68 -82q-15 21 -38 38t-49 27t-52 10q-44 0 -78.5 -21.5t-54.5 -59t-20 -84.5t20.5 -84t55.5 -59t78 -22q26 0 50.5 8.5t46.5 24.5t41 40l68 -83q-34 -44 -93.5 -71.5t-125.5 -27.5z
M298 639q-37 0 -57.5 18.5t-20.5 52.5q0 32 21 52t57 20q37 0 57.5 -19t20.5 -53q0 -31 -21 -51t-57 -20z" />
    <glyph glyph-name="Ccaron" unicode="&#x10c;" horiz-adv-x="684" 
d="M391 -10q-76 0 -139 26t-109 74.5t-71.5 115t-25.5 145.5q0 76 27 141t75 114t112 76t139 27q51 0 99 -15t88 -41.5t67 -61.5l-83 -91q-26 27 -53.5 45.5t-57 28t-60.5 9.5q-46 0 -86.5 -17t-70 -48t-46.5 -73.5t-17 -94.5q0 -53 16.5 -96t47 -74t73 -47.5t93.5 -16.5
q33 0 64 9t57.5 25.5t48.5 38.5l64 -103q-24 -27 -64 -49t-89.5 -34.5t-98.5 -12.5zM352 756l-125 105l42 41l143 -66h-30l143 66l42 -41l-125 -105h-90z" />
    <glyph glyph-name="ccaron" unicode="&#x10d;" horiz-adv-x="539" 
d="M298 -10q-74 0 -133 36t-93 98t-34 140t34 140t93 98t133 36q71 0 129 -27t90 -75l-68 -82q-15 21 -38 38t-49 27t-52 10q-44 0 -78.5 -21.5t-54.5 -59t-20 -84.5t20.5 -84t55.5 -59t78 -22q26 0 50.5 8.5t46.5 24.5t41 40l68 -83q-34 -44 -93.5 -71.5t-125.5 -27.5z
M253 607l-117 119l45 39l132 -78h-30l132 78l45 -39l-117 -119h-90z" />
    <glyph glyph-name="Dcaron" unicode="&#x10e;" horiz-adv-x="757" 
d="M94 0v700h281q76 0 137.5 -25t106 -72t68 -111t23.5 -142t-23.5 -142.5t-67.5 -111t-106 -71.5t-138 -25h-281zM224 101l-10 19h156q49 0 87.5 16t65.5 46t41 72.5t14 95.5t-14 95.5t-41.5 72.5t-65.5 46t-87 16h-159l13 17v-496zM333 756l-125 105l42 41l143 -66h-30
l143 66l42 -41l-125 -105h-90z" />
    <glyph glyph-name="dcaron" unicode="&#x10f;" horiz-adv-x="689" 
d="M284 -10q-70 0 -125.5 35.5t-88 97t-32.5 141.5q0 79 32 141t87.5 97.5t125.5 35.5q38 0 73.5 -12t63.5 -32.5t44.5 -45.5t18.5 -52l-33 -4v348h123v-740h-119l-3 124l24 -2q-1 -25 -17.5 -48t-42.5 -42t-60.5 -30.5t-70.5 -11.5zM308 94q43 0 76 22t51.5 60t18.5 88
q0 49 -18.5 87.5t-51.5 60t-76 21.5t-76 -21.5t-51.5 -60t-18.5 -87.5q0 -50 18.5 -88t51.5 -60t76 -22zM655 522l-30 47q14 4 28.5 12.5t23.5 19.5t9 22q0 6 -4.5 10.5t-16.5 8.5q-19 6 -26 16t-7 27q0 26 20 40.5t51 14.5q36 0 61 -22.5t25 -61.5q0 -23 -9.5 -43t-27 -37
t-42.5 -31t-55 -23z" />
    <glyph glyph-name="Dcroat" unicode="&#x110;" horiz-adv-x="757" 
d="M44 300v100h288v-100h-288zM94 0v700h281q76 0 137.5 -25t106 -72t68 -111t23.5 -142t-23.5 -142.5t-67.5 -111t-106 -71.5t-138 -25h-281zM224 101l-10 19h156q49 0 87.5 16t65.5 46t41 72.5t14 95.5t-14 95.5t-41.5 72.5t-65.5 46t-87 16h-159l13 17v-496z" />
    <glyph glyph-name="dcroat" unicode="&#x111;" horiz-adv-x="641" 
d="M349 584v100h288v-100h-288zM284 -10q-70 0 -125.5 35.5t-88 97t-32.5 141.5q0 79 32 141t87.5 97.5t125.5 35.5q38 0 73.5 -12t63.5 -32.5t44.5 -45.5t18.5 -52l-33 -4v348h123v-740h-119l-3 124l24 -2q-1 -25 -17.5 -48t-42.5 -42t-60.5 -30.5t-70.5 -11.5zM308 94
q43 0 76 22t51.5 60t18.5 88q0 49 -18.5 87.5t-51.5 60t-76 21.5t-76 -21.5t-51.5 -60t-18.5 -87.5q0 -50 18.5 -88t51.5 -60t76 -22z" />
    <glyph glyph-name="Emacron" unicode="&#x112;" horiz-adv-x="625" 
d="M94 0v700h458v-118h-330v-464h334v-118h-462zM154 300v116h347v-116h-347zM161 788v84h341v-84h-341z" />
    <glyph glyph-name="emacron" unicode="&#x113;" horiz-adv-x="586" 
d="M319 -10q-83 0 -146.5 35t-99 95.5t-35.5 138.5q0 62 20 113t55.5 88.5t85 58t108.5 20.5q52 0 97 -20t78 -54.5t50.5 -82t16.5 -103.5l-1 -43h-427l-23 84h347l-16 -17v22q-3 31 -20 54.5t-43.5 37t-58.5 13.5q-49 0 -82.5 -19t-50.5 -54.5t-17 -88.5q0 -51 21.5 -89
t61 -58.5t92.5 -20.5q37 0 68 12t67 43l61 -85q-27 -25 -61.5 -42.5t-72.5 -27.5t-75 -10zM156 641v84h302v-84h-302z" />
    <glyph glyph-name="Ebreve" unicode="&#x114;" horiz-adv-x="625" 
d="M94 0v700h458v-118h-330v-464h334v-118h-462zM154 300v116h347v-116h-347zM332 753q-42 0 -77 19t-58.5 50.5t-32.5 70.5l84 12q11 -25 33 -44t51 -19t51 19t33 44l84 -12q-8 -39 -32 -70.5t-58.5 -50.5t-77.5 -19z" />
    <glyph glyph-name="ebreve" unicode="&#x115;" horiz-adv-x="586" 
d="M319 -10q-83 0 -146.5 35t-99 95.5t-35.5 138.5q0 62 20 113t55.5 88.5t85 58t108.5 20.5q52 0 97 -20t78 -54.5t50.5 -82t16.5 -103.5l-1 -43h-427l-23 84h347l-16 -17v22q-3 31 -20 54.5t-43.5 37t-58.5 13.5q-49 0 -82.5 -19t-50.5 -54.5t-17 -88.5q0 -51 21.5 -89
t61 -58.5t92.5 -20.5q37 0 68 12t67 43l61 -85q-27 -25 -61.5 -42.5t-72.5 -27.5t-75 -10zM307 593q-66 0 -110 42t-58 114l84 12q12 -36 34 -57.5t50 -21.5t50 21.5t34 57.5l84 -12q-14 -72 -58 -114t-110 -42z" />
    <glyph glyph-name="Edotaccent" unicode="&#x116;" horiz-adv-x="625" 
d="M94 0v700h458v-118h-330v-464h334v-118h-462zM154 300v116h347v-116h-347zM332 758q-39 0 -58.5 19.5t-19.5 51.5q0 29 19.5 50.5t58.5 21.5t58.5 -19.5t19.5 -52.5q0 -28 -19.5 -49.5t-58.5 -21.5z" />
    <glyph glyph-name="edotaccent" unicode="&#x117;" horiz-adv-x="586" 
d="M319 -10q-83 0 -146.5 35t-99 95.5t-35.5 138.5q0 62 20 113t55.5 88.5t85 58t108.5 20.5q52 0 97 -20t78 -54.5t50.5 -82t16.5 -103.5l-1 -43h-427l-23 84h347l-16 -17v22q-3 31 -20 54.5t-43.5 37t-58.5 13.5q-49 0 -82.5 -19t-50.5 -54.5t-17 -88.5q0 -51 21.5 -89
t61 -58.5t92.5 -20.5q37 0 68 12t67 43l61 -85q-27 -25 -61.5 -42.5t-72.5 -27.5t-75 -10zM307 639q-37 0 -57.5 18.5t-20.5 52.5q0 32 21 52t57 20q37 0 57.5 -19t20.5 -53q0 -31 -21 -51t-57 -20z" />
    <glyph glyph-name="Eogonek" unicode="&#x118;" horiz-adv-x="625" 
d="M94 0v700h458v-118h-330v-464h334v-118h-462zM154 300v116h347v-116h-347zM434 -204q-31 0 -56.5 14t-41 37.5t-15.5 52.5q0 26 11 48.5t32 42t50 34.5t66 26l41 -51q-27 -5 -51 -18.5t-37.5 -30.5t-13.5 -35q0 -15 8.5 -24.5t23.5 -9.5q10 0 18.5 6.5t16.5 18.5l61 -44
q-12 -28 -43.5 -47.5t-69.5 -19.5z" />
    <glyph glyph-name="eogonek" unicode="&#x119;" horiz-adv-x="586" 
d="M389 -202q-54 0 -84 30.5t-30 71.5q0 44 26 76t70 58t99 50l23 -40q-59 -33 -89.5 -61.5t-30.5 -59.5q0 -18 10 -28t25 -10q13 0 21.5 6t17.5 18l61 -44q-10 -17 -27 -32.5t-40.5 -25t-51.5 -9.5zM319 -10q-83 0 -146.5 35t-99 95.5t-35.5 138.5q0 62 20 113t55.5 88.5
t85 58t108.5 20.5q52 0 97 -20t78 -54.5t50.5 -82t16.5 -103.5l-1 -43h-427l-23 84h347l-16 -17v22q-3 31 -20 54.5t-43.5 37t-58.5 13.5q-49 0 -82.5 -19t-50.5 -54.5t-17 -88.5q0 -51 21.5 -89t61 -58.5t92.5 -20.5q37 0 68 12t67 43l61 -85q-27 -25 -61.5 -42.5
t-72.5 -27.5t-75 -10z" />
    <glyph glyph-name="Ecaron" unicode="&#x11a;" horiz-adv-x="625" 
d="M94 0v700h458v-118h-330v-464h334v-118h-462zM154 300v116h347v-116h-347zM287 756l-125 105l42 41l143 -66h-30l143 66l42 -41l-125 -105h-90z" />
    <glyph glyph-name="ecaron" unicode="&#x11b;" horiz-adv-x="586" 
d="M319 -10q-83 0 -146.5 35t-99 95.5t-35.5 138.5q0 62 20 113t55.5 88.5t85 58t108.5 20.5q52 0 97 -20t78 -54.5t50.5 -82t16.5 -103.5l-1 -43h-427l-23 84h347l-16 -17v22q-3 31 -20 54.5t-43.5 37t-58.5 13.5q-49 0 -82.5 -19t-50.5 -54.5t-17 -88.5q0 -51 21.5 -89
t61 -58.5t92.5 -20.5q37 0 68 12t67 43l61 -85q-27 -25 -61.5 -42.5t-72.5 -27.5t-75 -10zM262 607l-117 119l45 39l132 -78h-30l132 78l45 -39l-117 -119h-90z" />
    <glyph glyph-name="Gcircumflex" unicode="&#x11c;" horiz-adv-x="771" 
d="M412 -10q-79 0 -146 27.5t-116.5 76.5t-76.5 114.5t-27 142.5q0 76 27.5 141.5t77.5 114t117.5 75.5t145.5 27q55 0 106 -15t92 -42t68 -61l-82 -86q-28 27 -57.5 45t-61.5 28t-66 10q-50 0 -92.5 -18t-74 -50t-49.5 -75t-18 -94q0 -49 18.5 -93t51.5 -77t76.5 -51.5
t92.5 -18.5q37 0 69 11t57 30.5t38.5 45.5t13.5 56v22l18 -21h-207v116h317q2 -11 3 -24.5t1.5 -26t0.5 -21.5q0 -69 -24 -125.5t-67.5 -97.5t-101 -63.5t-124.5 -22.5zM279 755l-41 42l128 103h79l128 -103l-41 -42l-141 67h29z" />
    <glyph glyph-name="gcircumflex" unicode="&#x11d;" horiz-adv-x="656" 
d="M309 -230q-59 0 -117.5 18t-94.5 47l44 91q21 -15 47 -26t55.5 -17t58.5 -6q53 0 88.5 16.5t53.5 50t18 83.5v97l18 -7q-6 -31 -33 -59t-68 -45.5t-84 -17.5q-75 0 -132.5 35t-91 95.5t-33.5 139.5t33 140.5t90.5 97t129.5 35.5q30 0 58 -7t51.5 -20t42.5 -29t31 -34
t15 -35l-26 -8l2 122h121v-491q0 -64 -19 -113t-55 -83.5t-87 -52t-116 -17.5zM314 100q45 0 79.5 21t53.5 58t19 85q0 49 -19.5 86.5t-53.5 58.5t-79 21t-79 -21.5t-53.5 -59t-19.5 -85.5q0 -47 19.5 -84.5t53.5 -58.5t79 -21zM203 605l-45 39l125 119h90l125 -119l-45 -39
l-140 77h30z" />
    <glyph glyph-name="Gbreve" unicode="&#x11e;" horiz-adv-x="771" 
d="M412 -10q-79 0 -146 27.5t-116.5 76.5t-76.5 114.5t-27 142.5q0 76 27.5 141.5t77.5 114t117.5 75.5t145.5 27q55 0 106 -15t92 -42t68 -61l-82 -86q-28 27 -57.5 45t-61.5 28t-66 10q-50 0 -92.5 -18t-74 -50t-49.5 -75t-18 -94q0 -49 18.5 -93t51.5 -77t76.5 -51.5
t92.5 -18.5q37 0 69 11t57 30.5t38.5 45.5t13.5 56v22l18 -21h-207v116h317q2 -11 3 -24.5t1.5 -26t0.5 -21.5q0 -69 -24 -125.5t-67.5 -97.5t-101 -63.5t-124.5 -22.5zM406 753q-42 0 -77 19t-58.5 50.5t-32.5 70.5l84 12q11 -25 33 -44t51 -19t51 19t33 44l84 -12
q-8 -39 -32 -70.5t-58.5 -50.5t-77.5 -19z" />
    <glyph glyph-name="gbreve" unicode="&#x11f;" horiz-adv-x="656" 
d="M309 -230q-59 0 -117.5 18t-94.5 47l44 91q21 -15 47 -26t55.5 -17t58.5 -6q53 0 88.5 16.5t53.5 50t18 83.5v97l18 -7q-6 -31 -33 -59t-68 -45.5t-84 -17.5q-75 0 -132.5 35t-91 95.5t-33.5 139.5t33 140.5t90.5 97t129.5 35.5q30 0 58 -7t51.5 -20t42.5 -29t31 -34
t15 -35l-26 -8l2 122h121v-491q0 -64 -19 -113t-55 -83.5t-87 -52t-116 -17.5zM314 100q45 0 79.5 21t53.5 58t19 85q0 49 -19.5 86.5t-53.5 58.5t-79 21t-79 -21.5t-53.5 -59t-19.5 -85.5q0 -47 19.5 -84.5t53.5 -58.5t79 -21zM328 593q-66 0 -110 42t-58 114l84 12
q12 -36 34 -57.5t50 -21.5t50 21.5t34 57.5l84 -12q-14 -72 -58 -114t-110 -42z" />
    <glyph glyph-name="Gdotaccent" unicode="&#x120;" horiz-adv-x="771" 
d="M412 -10q-79 0 -146 27.5t-116.5 76.5t-76.5 114.5t-27 142.5q0 76 27.5 141.5t77.5 114t117.5 75.5t145.5 27q55 0 106 -15t92 -42t68 -61l-82 -86q-28 27 -57.5 45t-61.5 28t-66 10q-50 0 -92.5 -18t-74 -50t-49.5 -75t-18 -94q0 -49 18.5 -93t51.5 -77t76.5 -51.5
t92.5 -18.5q37 0 69 11t57 30.5t38.5 45.5t13.5 56v22l18 -21h-207v116h317q2 -11 3 -24.5t1.5 -26t0.5 -21.5q0 -69 -24 -125.5t-67.5 -97.5t-101 -63.5t-124.5 -22.5zM406 758q-39 0 -58.5 19.5t-19.5 51.5q0 29 19.5 50.5t58.5 21.5t58.5 -19.5t19.5 -52.5
q0 -28 -19.5 -49.5t-58.5 -21.5z" />
    <glyph glyph-name="gdotaccent" unicode="&#x121;" horiz-adv-x="656" 
d="M309 -230q-59 0 -117.5 18t-94.5 47l44 91q21 -15 47 -26t55.5 -17t58.5 -6q53 0 88.5 16.5t53.5 50t18 83.5v97l18 -7q-6 -31 -33 -59t-68 -45.5t-84 -17.5q-75 0 -132.5 35t-91 95.5t-33.5 139.5t33 140.5t90.5 97t129.5 35.5q30 0 58 -7t51.5 -20t42.5 -29t31 -34
t15 -35l-26 -8l2 122h121v-491q0 -64 -19 -113t-55 -83.5t-87 -52t-116 -17.5zM314 100q45 0 79.5 21t53.5 58t19 85q0 49 -19.5 86.5t-53.5 58.5t-79 21t-79 -21.5t-53.5 -59t-19.5 -85.5q0 -47 19.5 -84.5t53.5 -58.5t79 -21zM328 639q-37 0 -57.5 18.5t-20.5 52.5
q0 32 21 52t57 20q37 0 57.5 -19t20.5 -53q0 -31 -21 -51t-57 -20z" />
    <glyph glyph-name="uni0122" unicode="&#x122;" horiz-adv-x="771" 
d="M412 -10q-79 0 -146 27.5t-116.5 76.5t-76.5 114.5t-27 142.5q0 76 27.5 141.5t77.5 114t117.5 75.5t145.5 27q55 0 106 -15t92 -42t68 -61l-82 -86q-28 27 -57.5 45t-61.5 28t-66 10q-50 0 -92.5 -18t-74 -50t-49.5 -75t-18 -94q0 -49 18.5 -93t51.5 -77t76.5 -51.5
t92.5 -18.5q37 0 69 11t57 30.5t38.5 45.5t13.5 56v22l18 -21h-207v116h317q2 -11 3 -24.5t1.5 -26t0.5 -21.5q0 -69 -24 -125.5t-67.5 -97.5t-101 -63.5t-124.5 -22.5zM334 -261l-30 47q14 4 28.5 12.5t23.5 19.5t9 22q0 6 -4.5 10.5t-16.5 8.5q-19 6 -26 16t-7 27
q0 26 20 40.5t51 14.5q36 0 61 -22.5t25 -61.5q0 -23 -9.5 -43t-27 -37t-42.5 -31t-55 -23z" />
    <glyph glyph-name="uni0123" unicode="&#x123;" horiz-adv-x="656" 
d="M309 -230q-59 0 -117.5 18t-94.5 47l44 91q21 -15 47 -26t55.5 -17t58.5 -6q53 0 88.5 16.5t53.5 50t18 83.5v97l18 -7q-6 -31 -33 -59t-68 -45.5t-84 -17.5q-75 0 -132.5 35t-91 95.5t-33.5 139.5t33 140.5t90.5 97t129.5 35.5q30 0 58 -7t51.5 -20t42.5 -29t31 -34
t15 -35l-26 -8l2 122h121v-491q0 -64 -19 -113t-55 -83.5t-87 -52t-116 -17.5zM314 100q45 0 79.5 21t53.5 58t19 85q0 49 -19.5 86.5t-53.5 58.5t-79 21t-79 -21.5t-53.5 -59t-19.5 -85.5q0 -47 19.5 -84.5t53.5 -58.5t79 -21zM331 602q-31 0 -58 20.5t-27 64.5
q0 27 13.5 49t34.5 38.5t44.5 28t41.5 17.5l30 -46q-13 -3 -27.5 -11.5t-24 -20t-9.5 -22.5q0 -10 6.5 -13.5t15.5 -6.5q13 -5 22.5 -13t9.5 -30q0 -27 -21 -41t-51 -14z" />
    <glyph glyph-name="Hcircumflex" unicode="&#x124;" horiz-adv-x="768" 
d="M543 0v700h130v-700h-130zM94 0v700h130v-700h-130zM148 288v122h458v-122h-458zM257 755l-41 42l128 103h79l128 -103l-41 -42l-141 67h29z" />
    <glyph glyph-name="hcircumflex" unicode="&#x125;" horiz-adv-x="609" 
d="M72 0v740h122v-321l-23 -12q10 36 39 65.5t69 47.5t82 18q60 0 100.5 -24t61 -72t20.5 -120v-322h-123v313q0 40 -11 66.5t-34 39t-56 11.5q-27 0 -49.5 -8.5t-39 -24t-26 -35.5t-9.5 -44v-318h-61h-33.5h-28.5zM178 795l-41 42l128 103h79l128 -103l-41 -42l-141 67h29z
" />
    <glyph glyph-name="Hbar" unicode="&#x126;" horiz-adv-x="844" 
d="M49 472v116h107l57 -10h394l53 10h136v-116h-130l-47 10h-416l-55 -10h-99zM582 0v700h130v-700h-130zM133 0v700h130v-700h-130zM187 288v122h458v-122h-458z" />
    <glyph glyph-name="hbar" unicode="&#x127;" horiz-adv-x="609" 
d="M12 588v100h289v-100h-289zM72 0v740h122v-321l-23 -12q10 36 39 65.5t69 47.5t82 18q60 0 100.5 -24t61 -72t20.5 -120v-322h-123v313q0 40 -11 66.5t-34 39t-56 11.5q-27 0 -49.5 -8.5t-39 -24t-26 -35.5t-9.5 -44v-318h-61h-33.5h-28.5z" />
    <glyph glyph-name="Itilde" unicode="&#x128;" horiz-adv-x="505" 
d="M73 0v115h115v470h-115v115h360v-115h-115v-470h115v-115h-360zM328 768q-22 0 -44.5 7t-44.5 16q-17 7 -29 11t-22 4q-14 0 -22 -9.5t-8 -28.5h-85q0 58 35 90.5t83 32.5q20 0 39.5 -6t40.5 -16q15 -6 27.5 -10t21.5 -4q14 0 21.5 10t6.5 26h84q0 -32 -12.5 -60.5
t-36 -45.5t-55.5 -17z" />
    <glyph glyph-name="itilde" unicode="&#x129;" horiz-adv-x="259" 
d="M68 0v527h123v-527h-123zM186 615q-19 0 -34 7t-33 21q-18 16 -28 22t-18 6q-13 0 -23.5 -13.5t-14.5 -41.5l-75 11q1 52 31 89t81 37q19 0 33.5 -7t32.5 -20q18 -14 27.5 -21t18.5 -7q14 0 24 13.5t13 40.5l76 -11q-1 -33 -15 -62.5t-38.5 -46.5t-57.5 -17z" />
    <glyph glyph-name="Imacron" unicode="&#x12a;" horiz-adv-x="505" 
d="M73 0v115h115v470h-115v115h360v-115h-115v-470h115v-115h-360zM82 788v84h341v-84h-341z" />
    <glyph glyph-name="imacron" unicode="&#x12b;" horiz-adv-x="259" 
d="M68 0v527h123v-527h-123zM-22 641v84h302v-84h-302z" />
    <glyph glyph-name="Ibreve" unicode="&#x12c;" horiz-adv-x="505" 
d="M73 0v115h115v470h-115v115h360v-115h-115v-470h115v-115h-360zM253 753q-42 0 -77 19t-58.5 50.5t-32.5 70.5l84 12q11 -25 33 -44t51 -19t51 19t33 44l84 -12q-8 -39 -32 -70.5t-58.5 -50.5t-77.5 -19z" />
    <glyph glyph-name="ibreve" unicode="&#x12d;" horiz-adv-x="259" 
d="M68 0v527h123v-527h-123zM129 593q-66 0 -110 42t-58 114l84 12q12 -36 34 -57.5t50 -21.5t50 21.5t34 57.5l84 -12q-14 -72 -58 -114t-110 -42z" />
    <glyph glyph-name="Iogonek" unicode="&#x12e;" horiz-adv-x="505" 
d="M73 0v115h115v470h-115v115h360v-115h-115v-470h115v-115h-360zM275 -204q-31 0 -56.5 14t-41 37.5t-15.5 52.5q0 26 11 48.5t32 42t50 34.5t66 26l41 -51q-27 -5 -51 -18.5t-37.5 -30.5t-13.5 -35q0 -15 8.5 -24.5t23.5 -9.5q10 0 18.5 6.5t16.5 18.5l61 -44
q-12 -28 -43.5 -47.5t-69.5 -19.5z" />
    <glyph glyph-name="iogonek" unicode="&#x12f;" horiz-adv-x="259" 
d="M68 0v527h123v-527h-123zM129 639q-37 0 -57.5 18.5t-20.5 52.5q0 32 21 52t57 20q37 0 57.5 -19t20.5 -53q0 -31 -21 -51t-57 -20zM97 -204q-31 0 -56.5 14.5t-41 38.5t-15.5 53q0 25 11 46t32 38.5t52.5 31.5t72.5 25l36 -43q-29 -6 -53.5 -19.5t-38.5 -30.5t-14 -34
q0 -15 9 -24.5t23 -9.5q10 0 18.5 6.5t16.5 18.5l61 -44q-8 -17 -24 -32.5t-38 -25t-51 -9.5z" />
    <glyph glyph-name="Idotaccent" unicode="&#x130;" horiz-adv-x="505" 
d="M73 0v115h115v470h-115v115h360v-115h-115v-470h115v-115h-360zM253 758q-39 0 -58.5 19.5t-19.5 51.5q0 29 19.5 50.5t58.5 21.5t58.5 -19.5t19.5 -52.5q0 -28 -19.5 -49.5t-58.5 -21.5z" />
    <glyph glyph-name="dotlessi" unicode="&#x131;" horiz-adv-x="259" 
d="M68 0v527h123v-527h-123z" />
    <glyph glyph-name="IJ" unicode="&#x132;" horiz-adv-x="1155" 
d="M73 0v115h115v470h-115v115h360v-115h-115v-470h115v-115h-360zM763 -10q-36 0 -68 9t-59 25.5t-48 40t-37 52.5l79 81q18 -26 34 -43t30.5 -26t30 -13t31.5 -4q32 0 56 14.5t37.5 40.5t13.5 59v357h-129v117h365v-117h-108v-370q0 -49 -17 -89.5t-47.5 -70.5t-72 -46.5
t-91.5 -16.5z" />
    <glyph glyph-name="ij" unicode="&#x133;" horiz-adv-x="576" 
d="M86 0v527h123v-527h-123zM146 639q-37 0 -57.5 18.5t-20.5 52.5q0 32 21 52t57 20q38 0 58.5 -18.5t20.5 -53.5q0 -31 -21 -51t-58 -20zM307 -201l-47 94q42 0 67.5 13t38 40t12.5 69v512h123v-541q0 -59 -23.5 -101t-67 -64t-103.5 -22zM442 639q-38 0 -58.5 18.5
t-20.5 52.5q0 32 21 52t58 20t57.5 -18.5t20.5 -53.5q0 -31 -21 -51t-57 -20z" />
    <glyph glyph-name="Jcircumflex" unicode="&#x134;" horiz-adv-x="650" 
d="M258 -10q-36 0 -68 9t-59 25.5t-48 40t-37 52.5l79 81q18 -26 34 -43t30.5 -26t30 -13t31.5 -4q32 0 56 14.5t37.5 40.5t13.5 59v357h-129v117h365v-117h-108v-370q0 -49 -17 -89.5t-47.5 -70.5t-72 -46.5t-91.5 -16.5zM292 755l-41 42l128 103h79l128 -103l-41 -42
l-141 67h29z" />
    <glyph glyph-name="jcircumflex" unicode="&#x135;" horiz-adv-x="281" 
d="M13 -201l-47 94q42 0 67.5 13t38 40t12.5 69v512h123v-541q0 -59 -24 -101t-67.5 -64t-102.5 -22zM22 605l-45 39l125 119h90l125 -119l-45 -39l-140 77h30z" />
    <glyph glyph-name="uni0136" unicode="&#x136;" horiz-adv-x="734" 
d="M197 209l-20 129l360 362h163zM94 0v700h130v-700h-130zM553 0l-265 353l92 79l331 -432h-158zM315 -261l-30 47q14 4 28.5 12.5t23.5 19.5t9 22q0 6 -4.5 10.5t-16.5 8.5q-19 6 -26 16t-7 27q0 26 20 40.5t51 14.5q36 0 61 -22.5t25 -61.5q0 -23 -9.5 -43t-27 -37
t-42.5 -31t-55 -23z" />
    <glyph glyph-name="uni0137" unicode="&#x137;" horiz-adv-x="589" 
d="M187 161l-24 115l250 251h164zM72 0v740h123v-740h-123zM428 0l-194 235l87 74l259 -309h-152zM242 -260l-30 46q14 5 28.5 13.5t23.5 19t9 21.5q0 7 -4.5 11.5t-16.5 7.5q-19 7 -26 17t-7 27q0 26 20 40.5t52 14.5q35 0 60 -22.5t25 -63.5q0 -21 -9.5 -40.5t-27 -36.5
t-42.5 -31t-55 -24z" />
    <glyph glyph-name="kgreenlandic" unicode="&#x138;" horiz-adv-x="581" 
d="M182 147l-24 107l250 273h150zM72 0v527h118v-527h-118zM414 0l-188 268l84 58l249 -327z" />
    <glyph glyph-name="Lacute" unicode="&#x139;" horiz-adv-x="602" 
d="M94 0v700h130v-580h323v-120h-453zM85 752l-31 63l192 113l50 -99z" />
    <glyph glyph-name="lacute" unicode="&#x13a;" horiz-adv-x="270" 
d="M73 0v740h124v-740h-124zM60 792l-31 63l192 113l50 -99z" />
    <glyph glyph-name="uni013B" unicode="&#x13b;" horiz-adv-x="602" 
d="M94 0v700h130v-580h323v-120h-453zM250 -261l-30 47q14 4 28.5 12.5t23.5 19.5t9 22q0 6 -4.5 10.5t-16.5 8.5q-19 6 -26 16t-7 27q0 26 20 40.5t51 14.5q36 0 61 -22.5t25 -61.5q0 -23 -9.5 -43t-27 -37t-42.5 -31t-55 -23z" />
    <glyph glyph-name="uni013C" unicode="&#x13c;" horiz-adv-x="270" 
d="M73 0v740h124v-740h-124zM83 -260l-30 46q14 5 28.5 13.5t23.5 19t9 21.5q0 7 -4.5 11.5t-16.5 7.5q-19 7 -26 17t-7 27q0 26 20 40.5t52 14.5q35 0 60 -22.5t25 -63.5q0 -21 -9.5 -40.5t-27 -36.5t-42.5 -31t-55 -24z" />
    <glyph glyph-name="Lcaron" unicode="&#x13d;" horiz-adv-x="602" 
d="M94 0v700h130v-580h323v-120h-453zM358 482l-30 47q14 4 28.5 12.5t23.5 19.5t9 22q0 6 -4.5 10.5t-16.5 8.5q-19 6 -26 16t-7 27q0 26 20 40.5t51 14.5q36 0 61 -22.5t25 -61.5q0 -23 -9.5 -43t-27 -37t-42.5 -31t-55 -23z" />
    <glyph glyph-name="lcaron" unicode="&#x13e;" horiz-adv-x="318" 
d="M73 0v740h124v-740h-124zM284 522l-30 47q14 4 28.5 12.5t23.5 19.5t9 22q0 6 -4.5 10.5t-16.5 8.5q-19 6 -26 16t-7 27q0 26 20 40.5t51 14.5q36 0 61 -22.5t25 -61.5q0 -23 -9.5 -43t-27 -37t-42.5 -31t-55 -23z" />
    <glyph glyph-name="Ldot" unicode="&#x13f;" horiz-adv-x="602" 
d="M94 0v700h130v-580h323v-120h-453zM460 299q-36 0 -55.5 21t-19.5 59q0 35 20.5 57.5t54.5 22.5q36 0 55.5 -20.5t19.5 -59.5q0 -35 -20.5 -57.5t-54.5 -22.5z" />
    <glyph glyph-name="ldot" unicode="&#x140;" horiz-adv-x="385" 
d="M73 0v740h124v-740h-124zM330 299q-36 0 -55.5 21t-19.5 59q0 35 20.5 57.5t54.5 22.5q36 0 55.5 -20.5t19.5 -59.5q0 -35 -20.5 -57.5t-54.5 -22.5z" />
    <glyph glyph-name="Lslash" unicode="&#x141;" horiz-adv-x="634" 
d="M59 249l-36 91l315 140l38 -94zM125 0v700h130v-580h323v-120h-453z" />
    <glyph glyph-name="lslash" unicode="&#x142;" horiz-adv-x="297" 
d="M37 278l-39 95l260 115l41 -93zM85 0v740h123v-740h-123z" />
    <glyph glyph-name="Nacute" unicode="&#x143;" horiz-adv-x="798" 
d="M94 0v700h117l406 -547l-22 -4q-4 28 -7 57.5t-5.5 61.5t-4 67t-2.5 73.5t-1 81.5v210h129v-700h-119l-408 539l26 7q5 -56 8.5 -95.5t5.5 -68t3.5 -47.5t2 -34.5t0.5 -29.5v-271h-129zM324 752l-31 63l192 113l50 -99z" />
    <glyph glyph-name="nacute" unicode="&#x144;" horiz-adv-x="609" 
d="M72 0v527h120l2 -108l-23 -12q10 36 39 65.5t69 47.5t82 18q60 0 100.5 -24t61 -72t20.5 -120v-322h-123v313q0 40 -11 66.5t-34 39t-56 11.5q-27 0 -49.5 -8.5t-39 -24t-26 -35.5t-9.5 -44v-318h-61h-33.5h-28.5zM262 600l-39 59l156 130l68 -89z" />
    <glyph glyph-name="uni0145" unicode="&#x145;" horiz-adv-x="798" 
d="M94 0v700h117l406 -547l-22 -4q-4 28 -7 57.5t-5.5 61.5t-4 67t-2.5 73.5t-1 81.5v210h129v-700h-119l-408 539l26 7q5 -56 8.5 -95.5t5.5 -68t3.5 -47.5t2 -34.5t0.5 -29.5v-271h-129zM347 -261l-30 47q14 4 28.5 12.5t23.5 19.5t9 22q0 6 -4.5 10.5t-16.5 8.5
q-19 6 -26 16t-7 27q0 26 20 40.5t51 14.5q36 0 61 -22.5t25 -61.5q0 -23 -9.5 -43t-27 -37t-42.5 -31t-55 -23z" />
    <glyph glyph-name="uni0146" unicode="&#x146;" horiz-adv-x="609" 
d="M72 0v527h120l2 -108l-23 -12q10 36 39 65.5t69 47.5t82 18q60 0 100.5 -24t61 -72t20.5 -120v-322h-123v313q0 40 -11 66.5t-34 39t-56 11.5q-27 0 -49.5 -8.5t-39 -24t-26 -35.5t-9.5 -44v-318h-61h-33.5h-28.5zM253 -260l-30 46q14 5 28.5 13.5t23.5 19t9 21.5
q0 7 -4.5 11.5t-16.5 7.5q-19 7 -26 17t-7 27q0 26 20 40.5t52 14.5q35 0 60 -22.5t25 -63.5q0 -21 -9.5 -40.5t-27 -36.5t-42.5 -31t-55 -24z" />
    <glyph glyph-name="Ncaron" unicode="&#x147;" horiz-adv-x="798" 
d="M94 0v700h117l406 -547l-22 -4q-4 28 -7 57.5t-5.5 61.5t-4 67t-2.5 73.5t-1 81.5v210h129v-700h-119l-408 539l26 7q5 -56 8.5 -95.5t5.5 -68t3.5 -47.5t2 -34.5t0.5 -29.5v-271h-129zM354 756l-125 105l42 41l143 -66h-30l143 66l42 -41l-125 -105h-90z" />
    <glyph glyph-name="ncaron" unicode="&#x148;" horiz-adv-x="609" 
d="M72 0v527h120l2 -108l-23 -12q10 36 39 65.5t69 47.5t82 18q60 0 100.5 -24t61 -72t20.5 -120v-322h-123v313q0 40 -11 66.5t-34 39t-56 11.5q-27 0 -49.5 -8.5t-39 -24t-26 -35.5t-9.5 -44v-318h-61h-33.5h-28.5zM290 607l-117 119l45 39l132 -78h-30l132 78l45 -39
l-117 -119h-90z" />
    <glyph glyph-name="napostrophe" unicode="&#x149;" horiz-adv-x="648" 
d="M-69 440l22 260h134l-82 -260h-74zM111 0v527h120l2 -108l-23 -12q10 36 39 65.5t69 47.5t82 18q60 0 100.5 -24t61 -72t20.5 -120v-322h-123v313q0 40 -11 66.5t-34 39t-56 11.5q-27 0 -49.5 -8.5t-39 -24t-26 -35.5t-9.5 -44v-318h-61h-33.5h-28.5z" />
    <glyph glyph-name="Eng" unicode="&#x14a;" horiz-adv-x="798" 
d="M504 -199l-49 95q28 0 50 6.5t38 20t25 32.5t9 46v70l9 -72l-393 519l12 12q2 -29 5 -58.5t5 -57.5t4 -53.5t3 -46t1 -35.5v-279h-129v700h117l399 -537l-15 -8q-6 34 -9.5 71t-5.5 78.5t-3.5 87.5t-1.5 98v210h129v-719q0 -57 -24.5 -97.5t-69.5 -61.5t-106 -21z" />
    <glyph glyph-name="eng" unicode="&#x14b;" horiz-adv-x="609" 
d="M348 -199l-47 95q59 0 88 29.5t31 87.5v300q0 40 -11 66.5t-34 39t-56 11.5q-27 0 -49.5 -8.5t-39 -24t-26 -35.5t-9.5 -44v-318h-123v527h120l1 -76q17 25 44 44.5t59 31t65 11.5q60 0 100.5 -24t61 -72t20.5 -120v-341q0 -56 -24 -96t-68 -62t-103 -22z" />
    <glyph glyph-name="Omacron" unicode="&#x14c;" horiz-adv-x="793" 
d="M396 -10q-75 0 -139 27t-111.5 75.5t-73.5 114.5t-26 144t26 144t73.5 114.5t111.5 75.5t139 27q76 0 140 -27t111 -76t73 -114.5t26 -143.5q0 -77 -26 -143t-73 -115t-111 -76t-140 -27zM396 114q48 0 87.5 17.5t68.5 50t45.5 75.5t16.5 94t-16.5 94t-45.5 75.5
t-68.5 50t-87.5 17.5q-47 0 -87 -17.5t-69 -49.5t-45 -75t-16 -95q0 -51 16 -94.5t45 -75.5t69 -49.5t87 -17.5zM225 788v84h341v-84h-341z" />
    <glyph glyph-name="omacron" unicode="&#x14d;" horiz-adv-x="624" 
d="M313 -10q-79 0 -141 35.5t-98 97.5t-36 141t36 141t98 97.5t141 35.5q78 0 140 -35.5t97.5 -97.5t35.5 -141t-35.5 -141t-97.5 -97.5t-140 -35.5zM313 99q43 0 76.5 22t53 59t18.5 84q1 48 -18.5 85t-53 58.5t-76.5 21.5t-77.5 -21.5t-53.5 -59t-19 -84.5t19 -84
t53.5 -59t77.5 -22zM161 641v84h302v-84h-302z" />
    <glyph glyph-name="Obreve" unicode="&#x14e;" horiz-adv-x="793" 
d="M396 -10q-75 0 -139 27t-111.5 75.5t-73.5 114.5t-26 144t26 144t73.5 114.5t111.5 75.5t139 27q76 0 140 -27t111 -76t73 -114.5t26 -143.5q0 -77 -26 -143t-73 -115t-111 -76t-140 -27zM396 114q48 0 87.5 17.5t68.5 50t45.5 75.5t16.5 94t-16.5 94t-45.5 75.5
t-68.5 50t-87.5 17.5q-47 0 -87 -17.5t-69 -49.5t-45 -75t-16 -95q0 -51 16 -94.5t45 -75.5t69 -49.5t87 -17.5zM396 753q-42 0 -77 19t-58.5 50.5t-32.5 70.5l84 12q11 -25 33 -44t51 -19t51 19t33 44l84 -12q-8 -39 -32 -70.5t-58.5 -50.5t-77.5 -19z" />
    <glyph glyph-name="obreve" unicode="&#x14f;" horiz-adv-x="624" 
d="M313 -10q-79 0 -141 35.5t-98 97.5t-36 141t36 141t98 97.5t141 35.5q78 0 140 -35.5t97.5 -97.5t35.5 -141t-35.5 -141t-97.5 -97.5t-140 -35.5zM313 99q43 0 76.5 22t53 59t18.5 84q1 48 -18.5 85t-53 58.5t-76.5 21.5t-77.5 -21.5t-53.5 -59t-19 -84.5t19 -84
t53.5 -59t77.5 -22zM312 593q-66 0 -110 42t-58 114l84 12q12 -36 34 -57.5t50 -21.5t50 21.5t34 57.5l84 -12q-14 -72 -58 -114t-110 -42z" />
    <glyph glyph-name="Ohungarumlaut" unicode="&#x150;" horiz-adv-x="793" 
d="M396 -10q-75 0 -139 27t-111.5 75.5t-73.5 114.5t-26 144t26 144t73.5 114.5t111.5 75.5t139 27q76 0 140 -27t111 -76t73 -114.5t26 -143.5q0 -77 -26 -143t-73 -115t-111 -76t-140 -27zM396 114q48 0 87.5 17.5t68.5 50t45.5 75.5t16.5 94t-16.5 94t-45.5 75.5
t-68.5 50t-87.5 17.5q-47 0 -87 -17.5t-69 -49.5t-45 -75t-16 -95q0 -51 16 -94.5t45 -75.5t69 -49.5t87 -17.5zM283 751l-43 56l138 139l74 -84zM490 750l-42 57l140 138l74 -85z" />
    <glyph glyph-name="ohungarumlaut" unicode="&#x151;" horiz-adv-x="624" 
d="M313 -10q-79 0 -141 35.5t-98 97.5t-36 141t36 141t98 97.5t141 35.5q78 0 140 -35.5t97.5 -97.5t35.5 -141t-35.5 -141t-97.5 -97.5t-140 -35.5zM313 99q43 0 76.5 22t53 59t18.5 84q1 48 -18.5 85t-53 58.5t-76.5 21.5t-77.5 -21.5t-53.5 -59t-19 -84.5t19 -84
t53.5 -59t77.5 -22zM348 600l-44 51l146 141l74 -85zM147 599l-46 50l143 143l75 -83z" />
    <glyph glyph-name="OE" unicode="&#x152;" horiz-adv-x="1045" 
d="M375 0q-75 0 -136 25t-103.5 71.5t-66 111t-23.5 142.5t25 142t70.5 111t110 72t143.5 25h581v-118h-333v-165h278v-116h-278v-183h333v-118h-601zM178 350q0 -53 14 -96t40.5 -72.5t64.5 -45.5t87 -16h131v460h-115q-53 0 -94 -16t-69.5 -46t-43.5 -72.5t-15 -95.5z" />
    <glyph glyph-name="oe" unicode="&#x153;" horiz-adv-x="1012" 
d="M313 -10q-79 0 -141 35.5t-98 97.5t-36 141t36 141t98 97.5t141 35.5q49 0 92 -15t77.5 -42.5t58.5 -64.5h-32q25 38 58 65t73.5 42t87.5 15q54 0 99.5 -19.5t79 -54t51.5 -82t17 -103.5l-1 -43h-404l2 84h328l-45 -43v41q0 34 -17.5 59t-47 39t-65.5 14
q-34 0 -60.5 -11.5t-44.5 -32.5t-27 -50.5t-9 -65.5q0 -48 18.5 -86.5t57 -61t96.5 -22.5q38 0 69.5 12t67.5 43l61 -85q-27 -24 -61.5 -42t-72.5 -28t-75 -10q-52 0 -97.5 14.5t-81.5 42t-59 65.5l32 1q-23 -38 -57.5 -65.5t-77 -42.5t-91.5 -15zM313 99q43 0 76.5 22
t53 59t18.5 84q1 48 -18.5 85t-53 58.5t-76.5 21.5t-77.5 -21.5t-53.5 -59t-19 -84.5t19 -84t53.5 -59t77.5 -22z" />
    <glyph glyph-name="Racute" unicode="&#x154;" horiz-adv-x="697" 
d="M94 0v700h304q63 0 115 -29.5t82.5 -80t30.5 -113.5q0 -60 -30.5 -110.5t-82 -80t-115.5 -29.5h-177v-257h-127zM500 0l-178 316l134 25l198 -342zM221 370h178q29 0 50.5 13.5t33.5 37.5t12 53q0 33 -15 57t-42 38t-62 14h-155v-213zM248 752l-31 63l192 113l50 -99z
" />
    <glyph glyph-name="racute" unicode="&#x155;" horiz-adv-x="421" 
d="M72 0v527h121l2 -168l-17 38q11 40 38 72t62.5 50.5t74.5 18.5q17 0 32.5 -3t25.5 -7l-33 -135q-11 6 -27 10t-32 4q-25 0 -47.5 -9.5t-39.5 -26.5t-26.5 -39.5t-9.5 -50.5v-281h-124zM176 600l-39 59l156 130l68 -89z" />
    <glyph glyph-name="uni0156" unicode="&#x156;" horiz-adv-x="697" 
d="M94 0v700h304q63 0 115 -29.5t82.5 -80t30.5 -113.5q0 -60 -30.5 -110.5t-82 -80t-115.5 -29.5h-177v-257h-127zM500 0l-178 316l134 25l198 -342zM221 370h178q29 0 50.5 13.5t33.5 37.5t12 53q0 33 -15 57t-42 38t-62 14h-155v-213zM297 -261l-30 47q14 4 28.5 12.5
t23.5 19.5t9 22q0 6 -4.5 10.5t-16.5 8.5q-19 6 -26 16t-7 27q0 26 20 40.5t51 14.5q36 0 61 -22.5t25 -61.5q0 -23 -9.5 -43t-27 -37t-42.5 -31t-55 -23z" />
    <glyph glyph-name="uni0157" unicode="&#x157;" horiz-adv-x="421" 
d="M72 0v527h121l2 -168l-17 38q11 40 38 72t62.5 50.5t74.5 18.5q17 0 32.5 -3t25.5 -7l-33 -135q-11 6 -27 10t-32 4q-25 0 -47.5 -9.5t-39.5 -26.5t-26.5 -39.5t-9.5 -50.5v-281h-124zM80 -260l-30 46q14 5 28.5 13.5t23.5 19t9 21.5q0 7 -4.5 11.5t-16.5 7.5
q-19 7 -26 17t-7 27q0 26 20 40.5t52 14.5q35 0 60 -22.5t25 -63.5q0 -21 -9.5 -40.5t-27 -36.5t-42.5 -31t-55 -24z" />
    <glyph glyph-name="Rcaron" unicode="&#x158;" horiz-adv-x="697" 
d="M94 0v700h304q63 0 115 -29.5t82.5 -80t30.5 -113.5q0 -60 -30.5 -110.5t-82 -80t-115.5 -29.5h-177v-257h-127zM500 0l-178 316l134 25l198 -342zM221 370h178q29 0 50.5 13.5t33.5 37.5t12 53q0 33 -15 57t-42 38t-62 14h-155v-213zM278 756l-125 105l42 41l143 -66
h-30l143 66l42 -41l-125 -105h-90z" />
    <glyph glyph-name="rcaron" unicode="&#x159;" horiz-adv-x="421" 
d="M72 0v527h121l2 -168l-17 38q11 40 38 72t62.5 50.5t74.5 18.5q17 0 32.5 -3t25.5 -7l-33 -135q-11 6 -27 10t-32 4q-25 0 -47.5 -9.5t-39.5 -26.5t-26.5 -39.5t-9.5 -50.5v-281h-124zM204 607l-117 119l45 39l132 -78h-30l132 78l45 -39l-117 -119h-90z" />
    <glyph glyph-name="Sacute" unicode="&#x15a;" horiz-adv-x="627" 
d="M316 -10q-61 0 -112 15.5t-92 46.5t-73 75l85 96q49 -68 96 -94t106 -26q34 0 62 10.5t44 29t16 42.5q0 17 -6.5 31.5t-19.5 26t-32 21.5t-43 17t-53 13q-55 11 -96 29.5t-69 46t-41 62t-13 78.5t19.5 81t53.5 64t79 42t97 15q59 0 105.5 -14t82 -41.5t58.5 -66.5
l-86 -85q-20 31 -45 51.5t-54 31t-61 10.5q-36 0 -62.5 -10t-41.5 -28.5t-15 -44.5q0 -20 9 -35.5t25.5 -27.5t42.5 -21t59 -16q55 -11 99 -29.5t75 -44t47 -58t16 -72.5q0 -69 -32.5 -118.5t-91.5 -76t-138 -26.5zM256 752l-31 63l192 113l50 -99z" />
    <glyph glyph-name="sacute" unicode="&#x15b;" horiz-adv-x="485" 
d="M248 -10q-70 0 -125.5 23.5t-90.5 67.5l80 69q30 -34 67 -49t78 -15q17 0 30.5 4t23.5 12t15.5 18.5t5.5 23.5q0 24 -18 38q-10 7 -31.5 15t-55.5 16q-54 14 -90 32.5t-56 41.5q-17 19 -25.5 43t-8.5 52q0 35 15.5 63.5t42.5 49.5t63 32t75 11q40 0 77.5 -10t70 -28.5
t55.5 -44.5l-68 -75q-19 18 -41.5 32t-45.5 22.5t-43 8.5q-19 0 -34 -3.5t-25 -10.5t-15.5 -17.5t-5.5 -24.5q1 -12 6.5 -22.5t15.5 -17.5q11 -7 33 -16t57 -17q49 -13 82 -29t52 -37q19 -18 27 -42t8 -53q0 -47 -26.5 -84t-72 -58t-102.5 -21zM170 600l-39 59l156 130
l68 -89z" />
    <glyph glyph-name="Scircumflex" unicode="&#x15c;" horiz-adv-x="627" 
d="M316 -10q-61 0 -112 15.5t-92 46.5t-73 75l85 96q49 -68 96 -94t106 -26q34 0 62 10.5t44 29t16 42.5q0 17 -6.5 31.5t-19.5 26t-32 21.5t-43 17t-53 13q-55 11 -96 29.5t-69 46t-41 62t-13 78.5t19.5 81t53.5 64t79 42t97 15q59 0 105.5 -14t82 -41.5t58.5 -66.5
l-86 -85q-20 31 -45 51.5t-54 31t-61 10.5q-36 0 -62.5 -10t-41.5 -28.5t-15 -44.5q0 -20 9 -35.5t25.5 -27.5t42.5 -21t59 -16q55 -11 99 -29.5t75 -44t47 -58t16 -72.5q0 -69 -32.5 -118.5t-91.5 -76t-138 -26.5zM205 755l-41 42l128 103h79l128 -103l-41 -42l-141 67h29z
" />
    <glyph glyph-name="scircumflex" unicode="&#x15d;" horiz-adv-x="485" 
d="M248 -10q-70 0 -125.5 23.5t-90.5 67.5l80 69q30 -34 67 -49t78 -15q17 0 30.5 4t23.5 12t15.5 18.5t5.5 23.5q0 24 -18 38q-10 7 -31.5 15t-55.5 16q-54 14 -90 32.5t-56 41.5q-17 19 -25.5 43t-8.5 52q0 35 15.5 63.5t42.5 49.5t63 32t75 11q40 0 77.5 -10t70 -28.5
t55.5 -44.5l-68 -75q-19 18 -41.5 32t-45.5 22.5t-43 8.5q-19 0 -34 -3.5t-25 -10.5t-15.5 -17.5t-5.5 -24.5q1 -12 6.5 -22.5t15.5 -17.5q11 -7 33 -16t57 -17q49 -13 82 -29t52 -37q19 -18 27 -42t8 -53q0 -47 -26.5 -84t-72 -58t-102.5 -21zM118 605l-45 39l125 119h90
l125 -119l-45 -39l-140 77h30z" />
    <glyph glyph-name="Scedilla" unicode="&#x15e;" horiz-adv-x="627" 
d="M316 -10q-61 0 -112 15.5t-92 46.5t-73 75l85 96q49 -68 96 -94t106 -26q34 0 62 10.5t44 29t16 42.5q0 17 -6.5 31.5t-19.5 26t-32 21.5t-43 17t-53 13q-55 11 -96 29.5t-69 46t-41 62t-13 78.5t19.5 81t53.5 64t79 42t97 15q59 0 105.5 -14t82 -41.5t58.5 -66.5
l-86 -85q-20 31 -45 51.5t-54 31t-61 10.5q-36 0 -62.5 -10t-41.5 -28.5t-15 -44.5q0 -20 9 -35.5t25.5 -27.5t42.5 -21t59 -16q55 -11 99 -29.5t75 -44t47 -58t16 -72.5q0 -69 -32.5 -118.5t-91.5 -76t-138 -26.5zM240 -245l-8 61q23 0 47.5 7t41.5 18.5t17 23.5
q0 13 -15 20.5t-34 11.5t-34 4l-14 11l71 112h67l-44 -69q50 -9 75.5 -33.5t25.5 -60.5q0 -28 -18 -48t-47 -33.5t-63.5 -19.5t-67.5 -5z" />
    <glyph glyph-name="scedilla" unicode="&#x15f;" horiz-adv-x="485" 
d="M248 -10q-70 0 -125.5 23.5t-90.5 67.5l80 69q30 -34 67 -49t78 -15q17 0 30.5 4t23.5 12t15.5 18.5t5.5 23.5q0 24 -18 38q-10 7 -31.5 15t-55.5 16q-54 14 -90 32.5t-56 41.5q-17 19 -25.5 43t-8.5 52q0 35 15.5 63.5t42.5 49.5t63 32t75 11q40 0 77.5 -10t70 -28.5
t55.5 -44.5l-68 -75q-19 18 -41.5 32t-45.5 22.5t-43 8.5q-19 0 -34 -3.5t-25 -10.5t-15.5 -17.5t-5.5 -24.5q1 -12 6.5 -22.5t15.5 -17.5q11 -7 33 -16t57 -17q49 -13 82 -29t52 -37q19 -18 27 -42t8 -53q0 -47 -26.5 -84t-72 -58t-102.5 -21zM155 -245l-7 61q22 0 47 7
t42 18.5t17 23.5q0 13 -15 20.5t-34 11.5t-34 4l-15 11l71 112h67l-44 -69q51 -9 76 -33.5t25 -60.5q0 -28 -18 -48t-47 -33.5t-63.5 -19.5t-67.5 -5z" />
    <glyph glyph-name="Scaron" unicode="&#x160;" horiz-adv-x="627" 
d="M316 -10q-61 0 -112 15.5t-92 46.5t-73 75l85 96q49 -68 96 -94t106 -26q34 0 62 10.5t44 29t16 42.5q0 17 -6.5 31.5t-19.5 26t-32 21.5t-43 17t-53 13q-55 11 -96 29.5t-69 46t-41 62t-13 78.5t19.5 81t53.5 64t79 42t97 15q59 0 105.5 -14t82 -41.5t58.5 -66.5
l-86 -85q-20 31 -45 51.5t-54 31t-61 10.5q-36 0 -62.5 -10t-41.5 -28.5t-15 -44.5q0 -20 9 -35.5t25.5 -27.5t42.5 -21t59 -16q55 -11 99 -29.5t75 -44t47 -58t16 -72.5q0 -69 -32.5 -118.5t-91.5 -76t-138 -26.5zM287 756l-125 105l42 41l143 -66h-30l143 66l42 -41
l-125 -105h-90z" />
    <glyph glyph-name="scaron" unicode="&#x161;" horiz-adv-x="485" 
d="M248 -10q-70 0 -125.5 23.5t-90.5 67.5l80 69q30 -34 67 -49t78 -15q17 0 30.5 4t23.5 12t15.5 18.5t5.5 23.5q0 24 -18 38q-10 7 -31.5 15t-55.5 16q-54 14 -90 32.5t-56 41.5q-17 19 -25.5 43t-8.5 52q0 35 15.5 63.5t42.5 49.5t63 32t75 11q40 0 77.5 -10t70 -28.5
t55.5 -44.5l-68 -75q-19 18 -41.5 32t-45.5 22.5t-43 8.5q-19 0 -34 -3.5t-25 -10.5t-15.5 -17.5t-5.5 -24.5q1 -12 6.5 -22.5t15.5 -17.5q11 -7 33 -16t57 -17q49 -13 82 -29t52 -37q19 -18 27 -42t8 -53q0 -47 -26.5 -84t-72 -58t-102.5 -21zM198 607l-117 119l45 39
l132 -78h-30l132 78l45 -39l-117 -119h-90z" />
    <glyph glyph-name="uni0162" unicode="&#x162;" horiz-adv-x="604" 
d="M234 0v580h-200v120h536v-120h-206v-580h-130zM208 -245l-8 61q23 0 47.5 7t41.5 18.5t17 23.5q0 13 -15 20.5t-34 11.5t-34 4l-14 11l71 112h67l-44 -69q50 -9 75.5 -33.5t25.5 -60.5q0 -28 -18 -48t-47 -33.5t-63.5 -19.5t-67.5 -5z" />
    <glyph glyph-name="uni0163" unicode="&#x163;" horiz-adv-x="389" 
d="M129 0v661h123v-661h-123zM25 413v114h342v-114h-342zM100 -245l-7 61q22 0 47 7t42 18.5t17 23.5q0 13 -15 20.5t-34 11.5t-34 4l-15 11l71 112h67l-44 -69q51 -9 76 -33.5t25 -60.5q0 -28 -18 -48t-47 -33.5t-63.5 -19.5t-67.5 -5z" />
    <glyph glyph-name="Tcaron" unicode="&#x164;" horiz-adv-x="604" 
d="M234 0v580h-200v120h536v-120h-206v-580h-130zM257 756l-125 105l42 41l143 -66h-30l143 66l42 -41l-125 -105h-90z" />
    <glyph glyph-name="tcaron" unicode="&#x165;" horiz-adv-x="389" 
d="M129 0v661h123v-661h-123zM25 413v114h342v-114h-342zM326 584l-30 47q14 4 28.5 12.5t23.5 19.5t9 22q0 6 -4.5 10.5t-16.5 8.5q-19 6 -26 16t-7 27q0 26 20 40.5t51 14.5q36 0 61 -22.5t25 -61.5q0 -23 -9.5 -43t-27 -37t-42.5 -31t-55 -23z" />
    <glyph glyph-name="Tbar" unicode="&#x166;" horiz-adv-x="604" 
d="M159 302v100h289v-100h-289zM234 0v580h-200v120h536v-120h-206v-580h-130z" />
    <glyph glyph-name="tbar" unicode="&#x167;" horiz-adv-x="389" 
d="M50 210v100h288v-100h-288zM129 0v661h123v-661h-123zM25 413v114h342v-114h-342z" />
    <glyph glyph-name="Utilde" unicode="&#x168;" horiz-adv-x="749" 
d="M374 -6q-83 0 -148 35.5t-102.5 98t-37.5 141.5v432h131v-423q0 -47 21.5 -83.5t57.5 -58.5t78 -22q46 0 83 22t58.5 58.5t21.5 83.5v423h126v-432q0 -79 -37.5 -141.5t-102.5 -98t-149 -35.5zM449 768q-22 0 -44.5 7t-44.5 16q-17 7 -29 11t-22 4q-14 0 -22 -9.5
t-8 -28.5h-85q0 58 35 90.5t83 32.5q20 0 39.5 -6t40.5 -16q15 -6 27.5 -10t21.5 -4q14 0 21.5 10t6.5 26h84q0 -32 -12.5 -60.5t-36 -45.5t-55.5 -17z" />
    <glyph glyph-name="utilde" unicode="&#x169;" horiz-adv-x="618" 
d="M255 -10q-57 0 -99 25.5t-64 73t-22 113.5v325h123v-299q0 -42 13 -71.5t38 -45.5t60 -16q26 0 47.5 8.5t37.5 24t25 37t9 46.5v316h123v-527h-120l-2 110l22 12q-12 -38 -40.5 -67.5t-67.5 -47t-83 -17.5zM367 615q-19 0 -34 7t-33 21q-18 16 -28 22t-18 6
q-13 0 -23.5 -13.5t-14.5 -41.5l-75 11q1 52 31 89t81 37q19 0 33.5 -7t32.5 -20q18 -14 27.5 -21t18.5 -7q14 0 24 13.5t13 40.5l76 -11q-1 -33 -15 -62.5t-38.5 -46.5t-57.5 -17z" />
    <glyph glyph-name="Umacron" unicode="&#x16a;" horiz-adv-x="749" 
d="M374 -6q-83 0 -148 35.5t-102.5 98t-37.5 141.5v432h131v-423q0 -47 21.5 -83.5t57.5 -58.5t78 -22q46 0 83 22t58.5 58.5t21.5 83.5v423h126v-432q0 -79 -37.5 -141.5t-102.5 -98t-149 -35.5zM203 788v84h341v-84h-341z" />
    <glyph glyph-name="umacron" unicode="&#x16b;" horiz-adv-x="618" 
d="M255 -10q-57 0 -99 25.5t-64 73t-22 113.5v325h123v-299q0 -42 13 -71.5t38 -45.5t60 -16q26 0 47.5 8.5t37.5 24t25 37t9 46.5v316h123v-527h-120l-2 110l22 12q-12 -38 -40.5 -67.5t-67.5 -47t-83 -17.5zM159 641v84h302v-84h-302z" />
    <glyph glyph-name="Ubreve" unicode="&#x16c;" horiz-adv-x="749" 
d="M374 -6q-83 0 -148 35.5t-102.5 98t-37.5 141.5v432h131v-423q0 -47 21.5 -83.5t57.5 -58.5t78 -22q46 0 83 22t58.5 58.5t21.5 83.5v423h126v-432q0 -79 -37.5 -141.5t-102.5 -98t-149 -35.5zM374 753q-42 0 -77 19t-58.5 50.5t-32.5 70.5l84 12q11 -25 33 -44t51 -19
t51 19t33 44l84 -12q-8 -39 -32 -70.5t-58.5 -50.5t-77.5 -19z" />
    <glyph glyph-name="ubreve" unicode="&#x16d;" horiz-adv-x="618" 
d="M255 -10q-57 0 -99 25.5t-64 73t-22 113.5v325h123v-299q0 -42 13 -71.5t38 -45.5t60 -16q26 0 47.5 8.5t37.5 24t25 37t9 46.5v316h123v-527h-120l-2 110l22 12q-12 -38 -40.5 -67.5t-67.5 -47t-83 -17.5zM310 593q-66 0 -110 42t-58 114l84 12q12 -36 34 -57.5
t50 -21.5t50 21.5t34 57.5l84 -12q-14 -72 -58 -114t-110 -42z" />
    <glyph glyph-name="Uring" unicode="&#x16e;" horiz-adv-x="749" 
d="M374 -6q-83 0 -148 35.5t-102.5 98t-37.5 141.5v432h131v-423q0 -47 21.5 -83.5t57.5 -58.5t78 -22q46 0 83 22t58.5 58.5t21.5 83.5v423h126v-432q0 -79 -37.5 -141.5t-102.5 -98t-149 -35.5zM373 677q-30 0 -57 15.5t-43.5 40.5t-16.5 55q0 32 16.5 58t43.5 41t57 15
q31 0 58 -15t43.5 -41t16.5 -58q0 -30 -16.5 -55t-43.5 -40.5t-58 -15.5zM373 744q20 0 33.5 13t13.5 31q0 22 -14 33.5t-33 11.5t-32.5 -12.5t-13.5 -32.5q0 -18 13.5 -31t32.5 -13z" />
    <glyph glyph-name="uring" unicode="&#x16f;" horiz-adv-x="618" 
d="M255 -10q-57 0 -99 25.5t-64 73t-22 113.5v325h123v-299q0 -42 13 -71.5t38 -45.5t60 -16q26 0 47.5 8.5t37.5 24t25 37t9 46.5v316h123v-527h-120l-2 110l22 12q-12 -38 -40.5 -67.5t-67.5 -47t-83 -17.5zM309 604q-29 0 -55 15t-42 40t-16 54q0 30 15.5 55t41.5 40
t56 15q31 0 57 -15t41.5 -40t15.5 -55q0 -29 -15.5 -54t-41.5 -40t-57 -15zM309 670q19 0 32.5 12.5t13.5 30.5q0 19 -13.5 31t-32.5 12t-32 -12t-13 -31q0 -18 13.5 -30.5t31.5 -12.5z" />
    <glyph glyph-name="Uhungarumlaut" unicode="&#x170;" horiz-adv-x="749" 
d="M374 -6q-83 0 -148 35.5t-102.5 98t-37.5 141.5v432h131v-423q0 -47 21.5 -83.5t57.5 -58.5t78 -22q46 0 83 22t58.5 58.5t21.5 83.5v423h126v-432q0 -79 -37.5 -141.5t-102.5 -98t-149 -35.5zM261 751l-43 56l138 139l74 -84zM468 750l-42 57l140 138l74 -85z" />
    <glyph glyph-name="uhungarumlaut" unicode="&#x171;" horiz-adv-x="618" 
d="M255 -10q-57 0 -99 25.5t-64 73t-22 113.5v325h123v-299q0 -42 13 -71.5t38 -45.5t60 -16q26 0 47.5 8.5t37.5 24t25 37t9 46.5v316h123v-527h-120l-2 110l22 12q-12 -38 -40.5 -67.5t-67.5 -47t-83 -17.5zM345 600l-44 51l146 141l74 -85zM144 599l-46 50l143 143
l75 -83z" />
    <glyph glyph-name="Uogonek" unicode="&#x172;" horiz-adv-x="749" 
d="M442 -204q-45 0 -78 28t-33 78q0 31 14 57.5t38.5 49t56.5 42t68 38.5l37 -46q-27 -15 -48.5 -30.5t-36.5 -31t-23 -31t-8 -31.5q0 -17 8.5 -27t23.5 -10q11 0 19.5 6.5t15.5 18.5l61 -44q-12 -27 -44 -47t-71 -20zM374 -6q-83 0 -148 35.5t-102.5 98t-37.5 141.5v432
h131v-423q0 -47 21.5 -83.5t57.5 -58.5t78 -22q46 0 83 22t58.5 58.5t21.5 83.5v423h126v-432q0 -79 -37.5 -141.5t-102.5 -98t-149 -35.5z" />
    <glyph glyph-name="uogonek" unicode="&#x173;" horiz-adv-x="618" 
d="M255 -10q-57 0 -99 25.5t-64 73t-22 113.5v325h123v-299q0 -42 13 -71.5t38 -45.5t60 -16q26 0 47.5 8.5t37.5 24t25 37t9 46.5v316h123v-527h-120l-2 110l22 12q-12 -38 -40.5 -67.5t-67.5 -47t-83 -17.5zM447 -204q-31 0 -56.5 14.5t-41 38.5t-15.5 53q0 25 11 46
t32 38.5t52.5 31.5t72.5 25l36 -43q-29 -6 -53.5 -19.5t-38.5 -30.5t-14 -34q0 -15 9 -24.5t23 -9.5q10 0 18.5 6.5t16.5 18.5l61 -44q-8 -17 -24 -32.5t-38 -25t-51 -9.5z" />
    <glyph glyph-name="Wcircumflex" unicode="&#x174;" horiz-adv-x="995" 
d="M235 0l-218 700h136l124 -413q6 -19 11 -42t9 -45.5t7 -41.5t6 -32l-27 1q12 47 19 76t12.5 48.5t11.5 36.5l118 302h111l115 -302q10 -28 18 -53.5t13.5 -50t10.5 -50.5l-24 -5q4 24 6 39t4 27t4 23.5t6.5 28t11.5 42.5l123 411h135l-219 -700h-94l-178 426l12 -4
l-169 -422h-95zM371 755l-41 42l128 103h79l128 -103l-41 -42l-141 67h29z" />
    <glyph glyph-name="wcircumflex" unicode="&#x175;" horiz-adv-x="812" 
d="M196 0l-177 527l126 1l118 -376l-22 2l128 294h74l131 -294l-26 -3l119 376h126l-178 -527h-88l-135 316l19 -2l-128 -314h-87zM281 605l-45 39l125 119h90l125 -119l-45 -39l-140 77h30z" />
    <glyph glyph-name="Ycircumflex" unicode="&#x176;" horiz-adv-x="670" 
d="M280 0v349l7 -49l-283 400h152l216 -310l-47 3l195 307h146l-271 -411l15 68v-357h-130zM208 755l-41 42l128 103h79l128 -103l-41 -42l-141 67h29z" />
    <glyph glyph-name="ycircumflex" unicode="&#x177;" horiz-adv-x="595" 
d="M152 -230l112 259l1 -82l-260 580h142l145 -344q7 -13 14 -34.5t12 -42.5l-25 -8q7 19 15 40.5t15 44.5l124 344h143l-220 -527l-90 -230h-128zM173 605l-45 39l125 119h90l125 -119l-45 -39l-140 77h30z" />
    <glyph glyph-name="Ydieresis" unicode="&#x178;" horiz-adv-x="670" 
d="M280 0v349l7 -49l-283 400h152l216 -310l-47 3l195 307h146l-271 -411l15 68v-357h-130zM445 757q-38 0 -57 19.5t-19 52.5q0 29 19 50.5t57 21.5q37 0 56 -19.5t19 -52.5q0 -29 -19 -50.5t-56 -21.5zM225 757q-37 0 -56 19.5t-19 52.5q0 29 19 50.5t56 21.5
q38 0 57 -19.5t19 -52.5q0 -29 -19 -50.5t-57 -21.5z" />
    <glyph glyph-name="Zacute" unicode="&#x179;" horiz-adv-x="668" 
d="M60 0v91l391 522l31 -35h-396v122h515v-90l-389 -523l-32 33h432v-120h-552zM259 752l-31 63l192 113l50 -99z" />
    <glyph glyph-name="zacute" unicode="&#x17a;" horiz-adv-x="507" 
d="M50 0v88l275 362v-26h-275v103h403v-88l-267 -355l-4 19h278v-103h-410zM181 600l-39 59l156 130l68 -89z" />
    <glyph glyph-name="Zdotaccent" unicode="&#x17b;" horiz-adv-x="668" 
d="M60 0v91l391 522l31 -35h-396v122h515v-90l-389 -523l-32 33h432v-120h-552zM334 758q-39 0 -58.5 19.5t-19.5 51.5q0 29 19.5 50.5t58.5 21.5t58.5 -19.5t19.5 -52.5q0 -28 -19.5 -49.5t-58.5 -21.5z" />
    <glyph glyph-name="zdotaccent" unicode="&#x17c;" horiz-adv-x="507" 
d="M50 0v88l275 362v-26h-275v103h403v-88l-267 -355l-4 19h278v-103h-410zM254 639q-37 0 -57.5 18.5t-20.5 52.5q0 32 21 52t57 20q37 0 57.5 -19t20.5 -53q0 -31 -21 -51t-57 -20z" />
    <glyph glyph-name="Zcaron" unicode="&#x17d;" horiz-adv-x="668" 
d="M60 0v91l391 522l31 -35h-396v122h515v-90l-389 -523l-32 33h432v-120h-552zM289 756l-125 105l42 41l143 -66h-30l143 66l42 -41l-125 -105h-90z" />
    <glyph glyph-name="zcaron" unicode="&#x17e;" horiz-adv-x="507" 
d="M50 0v88l275 362v-26h-275v103h403v-88l-267 -355l-4 19h278v-103h-410zM209 607l-117 119l45 39l132 -78h-30l132 78l45 -39l-117 -119h-90z" />
    <glyph glyph-name="uni018F" unicode="&#x18f;" horiz-adv-x="777" 
d="M388 -10q-68 0 -128.5 24t-107 68t-75 103t-31.5 128v87h638l9 -111h-516q8 -40 27.5 -73t48 -57.5t63.5 -37.5t72 -13q47 0 86.5 17t68.5 49t45 76.5t16 100.5q0 55 -16.5 99.5t-45.5 76.5t-70 48.5t-91 16.5q-41 0 -75 -8t-64 -24t-59 -42l-70 91q39 35 79.5 57.5
t87.5 33t105 10.5q71 0 133.5 -28t110 -77.5t74.5 -114.5t27 -140t-26.5 -140t-74 -114.5t-109 -77.5t-132.5 -28z" />
    <glyph glyph-name="florin" unicode="&#x192;" horiz-adv-x="532" 
d="M101 -31q-28 0 -54.5 8.5t-45.5 23.5l37 89q15 -8 28 -11.5t30 -3.5q16 0 28.5 8.5t20.5 25.5t13 41l67 382q14 83 60 123t124 40q35 0 65 -9t58 -27l-39 -86q-20 9 -36 13t-30 4q-36 0 -56 -19.5t-27 -59.5l-67 -379q-15 -83 -59 -123t-117 -40zM76 344v99l375 -1v-99z
" />
    <glyph glyph-name="uni019D" unicode="&#x19d;" horiz-adv-x="784" 
d="M10 -199l-49 95q60 0 90 30t30 89v685h116l407 -547l-23 -4q-5 35 -8.5 72t-6 79t-4 89t-1.5 101v210h129v-700h-119l-407 539l25 7q4 -36 7 -69t5.5 -63.5t4 -57.5t2.5 -51t1 -44v-275q0 -59 -24 -100.5t-69 -63t-106 -21.5z" />
    <glyph glyph-name="Ohorn" unicode="&#x1a0;" horiz-adv-x="793" 
d="M396 -10q-75 0 -139 27t-111.5 75.5t-73.5 114.5t-26 144t26 144t73.5 114.5t111.5 75.5t139 27q24 0 44.5 -2.5t38.5 -6.5q14 -4 27 -6t26 -2q30 0 49.5 14t29 41.5t9.5 67.5h104q0 -39 -7.5 -72.5t-23 -59t-41.5 -41.5t-64 -20l13 24q45 -32 77.5 -77.5t50 -101
t17.5 -119.5q0 -77 -26 -143t-73 -115t-111 -76t-140 -27zM396 114q48 0 87.5 17.5t68.5 50t45.5 75.5t16.5 94t-16.5 94t-45.5 75.5t-68.5 50t-87.5 17.5q-47 0 -87 -17.5t-69 -49.5t-45 -75t-16 -95q0 -51 16 -94.5t45 -75.5t69 -49.5t87 -17.5z" />
    <glyph glyph-name="ohorn" unicode="&#x1a1;" horiz-adv-x="624" 
d="M313 -10q-79 0 -141 35.5t-98 97.5t-36 141t36 141t98 97.5t141 35.5q20 0 37.5 -2.5t31.5 -5.5q10 -2 18 -3.5t14 -1.5q41 0 60.5 29.5t19.5 86.5h96q0 -45 -12 -83t-39 -63.5t-70 -35.5l9 26q51 -36 79.5 -93t28.5 -128q0 -79 -35.5 -141t-97.5 -97.5t-140 -35.5z
M313 99q43 0 76.5 22t53 59t18.5 84q1 48 -18.5 85t-53 58.5t-76.5 21.5t-77.5 -21.5t-53.5 -59t-19 -84.5t19 -84t53.5 -59t77.5 -22z" />
    <glyph glyph-name="Uhorn" unicode="&#x1af;" horiz-adv-x="749" 
d="M374 -6q-83 0 -148 35.5t-102.5 98t-37.5 141.5v432h131v-423q0 -47 21.5 -83.5t57.5 -58.5t78 -22q46 0 83 22t58.5 58.5t21.5 83.5v423h47q46 0 66 31t20 86h104q0 -53 -16.5 -95.5t-49 -69t-81.5 -33.5l36 50v-401q0 -79 -37.5 -141.5t-102.5 -98t-149 -35.5z" />
    <glyph glyph-name="uhorn" unicode="&#x1b0;" horiz-adv-x="618" 
d="M255 -10q-57 0 -99 25.5t-64 73t-22 113.5v325h123v-299q0 -42 13 -71.5t38 -45.5t60 -16q26 0 47.5 8.5t37.5 24t25 37t9 46.5v316q30 0 51.5 7t34.5 21t19.5 35.5t6.5 50.5h96q0 -42 -12 -78.5t-38 -62t-67 -34.5l32 53v-519h-120l-2 124l15 -20q-15 -33 -43 -59
t-64 -40.5t-77 -14.5z" />
    <glyph glyph-name="uni01C4" unicode="&#x1c4;" horiz-adv-x="1379" 
d="M94 0v700h281q76 0 137.5 -25t106 -72t68 -111t23.5 -142t-23.5 -142.5t-67.5 -111t-106 -71.5t-138 -25h-281zM224 101l-10 19h156q49 0 87.5 16t65.5 46t41 72.5t14 95.5t-14 95.5t-41.5 72.5t-65.5 46t-87 16h-159l13 17v-496zM772 0v91l391 522l31 -35h-396v122h515
v-90l-389 -523l-32 33h432v-120h-552zM1001 756l-125 105l42 41l143 -66h-30l143 66l42 -41l-125 -105h-90z" />
    <glyph glyph-name="uni01C5" unicode="&#x1c5;" horiz-adv-x="1263" 
d="M94 0v700h281q76 0 137.5 -25t106 -72t68 -111t23.5 -142t-23.5 -142.5t-67.5 -111t-106 -71.5t-138 -25h-281zM224 101l-10 19h156q49 0 87.5 16t65.5 46t41 72.5t14 95.5t-14 95.5t-41.5 72.5t-65.5 46t-87 16h-159l13 17v-496zM806 0v88l275 362v-26h-275v103h403v-88
l-267 -355l-4 19h278v-103h-410zM964 607l-117 119l45 39l132 -78h-30l132 78l45 -39l-117 -119h-90z" />
    <glyph glyph-name="uni01C6" unicode="&#x1c6;" horiz-adv-x="1149" 
d="M284 -10q-70 0 -125.5 35.5t-88 97t-32.5 141.5q0 79 32 141t87.5 97.5t125.5 35.5q38 0 73.5 -12t63.5 -32.5t44.5 -45.5t18.5 -52l-33 -4v348h123v-740h-119l-3 124l24 -2q-1 -25 -17.5 -48t-42.5 -42t-60.5 -30.5t-70.5 -11.5zM308 94q43 0 76 22t51.5 60t18.5 88
q0 49 -18.5 87.5t-51.5 60t-76 21.5t-76 -21.5t-51.5 -60t-18.5 -87.5q0 -50 18.5 -88t51.5 -60t76 -22zM691 0v88l275 362v-26h-275v103h403v-88l-267 -355l-4 19h278v-103h-410zM850 607l-117 119l45 39l132 -78h-30l132 78l45 -39l-117 -119h-90z" />
    <glyph glyph-name="uni01C7" unicode="&#x1c7;" horiz-adv-x="1253" 
d="M94 0v700h130v-580h323v-120h-453zM860 -10q-36 0 -68 9t-59 25.5t-48 40t-37 52.5l79 81q18 -26 34 -43t30.5 -26t30 -13t31.5 -4q32 0 56 14.5t37.5 40.5t13.5 59v357h-129v117h365v-117h-108v-370q0 -49 -17 -89.5t-47.5 -70.5t-72 -46.5t-91.5 -16.5z" />
    <glyph glyph-name="uni01C8" unicode="&#x1c8;" horiz-adv-x="885" 
d="M94 0v700h130v-580h323v-120h-453zM616 -201l-47 94q42 0 67.5 13t38 40t12.5 69v512h123v-541q0 -59 -23.5 -101t-67 -64t-103.5 -22zM751 639q-38 0 -58.5 18.5t-20.5 52.5q0 32 21 52t58 20t57.5 -18.5t20.5 -53.5q0 -31 -21 -51t-57 -20z" />
    <glyph glyph-name="uni01C9" unicode="&#x1c9;" horiz-adv-x="539" 
d="M73 0v740h124v-740h-124zM270 -201l-47 94q42 0 67.5 13t38 40t12.5 69v512h123v-541q0 -59 -23.5 -101t-67 -64t-103.5 -22zM405 639q-38 0 -58.5 18.5t-20.5 52.5q0 32 21 52t58 20t57.5 -18.5t20.5 -53.5q0 -31 -21 -51t-57 -20z" />
    <glyph glyph-name="uni01CA" unicode="&#x1ca;" horiz-adv-x="1448" 
d="M94 0v700h117l406 -547l-22 -4q-4 28 -7 57.5t-5.5 61.5t-4 67t-2.5 73.5t-1 81.5v210h129v-700h-119l-408 539l26 7q5 -56 8.5 -95.5t5.5 -68t3.5 -47.5t2 -34.5t0.5 -29.5v-271h-129zM1056 -10q-36 0 -68 9t-59 25.5t-48 40t-37 52.5l79 81q18 -26 34 -43t30.5 -26
t30 -13t31.5 -4q32 0 56 14.5t37.5 40.5t13.5 59v357h-129v117h365v-117h-108v-370q0 -49 -17 -89.5t-47.5 -70.5t-72 -46.5t-91.5 -16.5z" />
    <glyph glyph-name="uni01CB" unicode="&#x1cb;" horiz-adv-x="1081" 
d="M94 0v700h117l406 -547l-22 -4q-4 28 -7 57.5t-5.5 61.5t-4 67t-2.5 73.5t-1 81.5v210h129v-700h-119l-408 539l26 7q5 -56 8.5 -95.5t5.5 -68t3.5 -47.5t2 -34.5t0.5 -29.5v-271h-129zM812 -201l-47 94q42 0 67.5 13t38 40t12.5 69v512h123v-541q0 -59 -23.5 -101
t-67 -64t-103.5 -22zM947 639q-38 0 -58.5 18.5t-20.5 52.5q0 32 21 52t58 20t57.5 -18.5t20.5 -53.5q0 -31 -21 -51t-57 -20z" />
    <glyph glyph-name="uni01CC" unicode="&#x1cc;" horiz-adv-x="892" 
d="M72 0v527h120l2 -108l-23 -12q10 36 39 65.5t69 47.5t82 18q60 0 100.5 -24t61 -72t20.5 -120v-322h-123v313q0 40 -11 66.5t-34 39t-56 11.5q-27 0 -49.5 -8.5t-39 -24t-26 -35.5t-9.5 -44v-318h-61h-33.5h-28.5zM623 -201l-47 94q42 0 67.5 13t38 40t12.5 69v512h123
v-541q0 -59 -23.5 -101t-67 -64t-103.5 -22zM758 639q-38 0 -58.5 18.5t-20.5 52.5q0 32 21 52t58 20t57.5 -18.5t20.5 -53.5q0 -31 -21 -51t-57 -20z" />
    <glyph glyph-name="uni01CD" unicode="&#x1cd;" horiz-adv-x="698" 
d="M16 0l273 700h122l271 -700h-135l-150 398q-5 12 -13.5 38t-18.5 56.5t-18 57t-12 38.5l25 1q-6 -20 -14 -45t-17 -52t-17.5 -52t-15.5 -45l-150 -395h-130zM140 160l45 113h319l48 -113h-412zM304 756l-125 105l42 41l143 -66h-30l143 66l42 -41l-125 -105h-90z" />
    <glyph glyph-name="uni01CE" unicode="&#x1ce;" horiz-adv-x="642" 
d="M271 -10q-65 0 -118 36t-85 98t-32 141t32 141t87 97t124 35q40 0 73 -11.5t58 -32.5t41.5 -48t22.5 -58l-27 7v132h124v-527h-125v126l29 5q-7 -27 -25.5 -52.5t-46 -45t-61 -31.5t-71.5 -12zM305 99q43 0 76 21t51.5 58.5t18.5 86.5q0 48 -18.5 85t-51.5 58t-76 21
t-75.5 -21t-50.5 -58t-18 -85q0 -49 18 -86.5t50.5 -58.5t75.5 -21zM277 607l-117 119l45 39l132 -78h-30l132 78l45 -39l-117 -119h-90z" />
    <glyph glyph-name="uni01CF" unicode="&#x1cf;" horiz-adv-x="505" 
d="M73 0v115h115v470h-115v115h360v-115h-115v-470h115v-115h-360zM208 756l-125 105l42 41l143 -66h-30l143 66l42 -41l-125 -105h-90z" />
    <glyph glyph-name="uni01D0" unicode="&#x1d0;" horiz-adv-x="259" 
d="M68 0v527h123v-527h-123zM84 607l-117 119l45 39l132 -78h-30l132 78l45 -39l-117 -119h-90z" />
    <glyph glyph-name="uni01D1" unicode="&#x1d1;" horiz-adv-x="793" 
d="M396 -10q-75 0 -139 27t-111.5 75.5t-73.5 114.5t-26 144t26 144t73.5 114.5t111.5 75.5t139 27q76 0 140 -27t111 -76t73 -114.5t26 -143.5q0 -77 -26 -143t-73 -115t-111 -76t-140 -27zM396 114q48 0 87.5 17.5t68.5 50t45.5 75.5t16.5 94t-16.5 94t-45.5 75.5
t-68.5 50t-87.5 17.5q-47 0 -87 -17.5t-69 -49.5t-45 -75t-16 -95q0 -51 16 -94.5t45 -75.5t69 -49.5t87 -17.5zM351 756l-125 105l42 41l143 -66h-30l143 66l42 -41l-125 -105h-90z" />
    <glyph glyph-name="uni01D2" unicode="&#x1d2;" horiz-adv-x="624" 
d="M313 -10q-79 0 -141 35.5t-98 97.5t-36 141t36 141t98 97.5t141 35.5q78 0 140 -35.5t97.5 -97.5t35.5 -141t-35.5 -141t-97.5 -97.5t-140 -35.5zM313 99q43 0 76.5 22t53 59t18.5 84q1 48 -18.5 85t-53 58.5t-76.5 21.5t-77.5 -21.5t-53.5 -59t-19 -84.5t19 -84
t53.5 -59t77.5 -22zM267 607l-117 119l45 39l132 -78h-30l132 78l45 -39l-117 -119h-90z" />
    <glyph glyph-name="uni01D3" unicode="&#x1d3;" horiz-adv-x="749" 
d="M374 -6q-83 0 -148 35.5t-102.5 98t-37.5 141.5v432h131v-423q0 -47 21.5 -83.5t57.5 -58.5t78 -22q46 0 83 22t58.5 58.5t21.5 83.5v423h126v-432q0 -79 -37.5 -141.5t-102.5 -98t-149 -35.5zM329 756l-125 105l42 41l143 -66h-30l143 66l42 -41l-125 -105h-90z" />
    <glyph glyph-name="uni01D4" unicode="&#x1d4;" horiz-adv-x="618" 
d="M255 -10q-57 0 -99 25.5t-64 73t-22 113.5v325h123v-299q0 -42 13 -71.5t38 -45.5t60 -16q26 0 47.5 8.5t37.5 24t25 37t9 46.5v316h123v-527h-120l-2 110l22 12q-12 -38 -40.5 -67.5t-67.5 -47t-83 -17.5zM265 607l-117 119l45 39l132 -78h-30l132 78l45 -39l-117 -119
h-90z" />
    <glyph glyph-name="Gcaron" unicode="&#x1e6;" horiz-adv-x="771" 
d="M412 -10q-79 0 -146 27.5t-116.5 76.5t-76.5 114.5t-27 142.5q0 76 27.5 141.5t77.5 114t117.5 75.5t145.5 27q55 0 106 -15t92 -42t68 -61l-82 -86q-28 27 -57.5 45t-61.5 28t-66 10q-50 0 -92.5 -18t-74 -50t-49.5 -75t-18 -94q0 -49 18.5 -93t51.5 -77t76.5 -51.5
t92.5 -18.5q37 0 69 11t57 30.5t38.5 45.5t13.5 56v22l18 -21h-207v116h317q2 -11 3 -24.5t1.5 -26t0.5 -21.5q0 -69 -24 -125.5t-67.5 -97.5t-101 -63.5t-124.5 -22.5zM361 756l-125 105l42 41l143 -66h-30l143 66l42 -41l-125 -105h-90z" />
    <glyph glyph-name="gcaron" unicode="&#x1e7;" horiz-adv-x="656" 
d="M309 -230q-59 0 -117.5 18t-94.5 47l44 91q21 -15 47 -26t55.5 -17t58.5 -6q53 0 88.5 16.5t53.5 50t18 83.5v97l18 -7q-6 -31 -33 -59t-68 -45.5t-84 -17.5q-75 0 -132.5 35t-91 95.5t-33.5 139.5t33 140.5t90.5 97t129.5 35.5q30 0 58 -7t51.5 -20t42.5 -29t31 -34
t15 -35l-26 -8l2 122h121v-491q0 -64 -19 -113t-55 -83.5t-87 -52t-116 -17.5zM314 100q45 0 79.5 21t53.5 58t19 85q0 49 -19.5 86.5t-53.5 58.5t-79 21t-79 -21.5t-53.5 -59t-19.5 -85.5q0 -47 19.5 -84.5t53.5 -58.5t79 -21zM283 607l-117 119l45 39l132 -78h-30l132 78
l45 -39l-117 -119h-90z" />
    <glyph glyph-name="uni01EA" unicode="&#x1ea;" horiz-adv-x="793" 
d="M482 -204q-45 0 -78.5 28t-33.5 78q0 31 14 57.5t38.5 49t56.5 42t68 38.5l37 -46q-27 -15 -48 -30.5t-36 -31t-23.5 -31t-8.5 -31.5q0 -17 9 -27t23 -10q11 0 19.5 6.5t16.5 18.5l61 -44q-12 -27 -44 -47t-71 -20zM396 -10q-75 0 -139 27t-111.5 75.5t-73.5 114.5
t-26 144t26 144t73.5 114.5t111.5 75.5t139 27q76 0 140 -27t111 -76t73 -114.5t26 -143.5q0 -77 -26 -143t-73 -115t-111 -76t-140 -27zM396 114q48 0 87.5 17.5t68.5 50t45.5 75.5t16.5 94t-16.5 94t-45.5 75.5t-68.5 50t-87.5 17.5q-47 0 -87 -17.5t-69 -49.5t-45 -75
t-16 -95q0 -51 16 -94.5t45 -75.5t69 -49.5t87 -17.5z" />
    <glyph glyph-name="uni01EB" unicode="&#x1eb;" horiz-adv-x="624" 
d="M378 -202q-50 0 -79 30.5t-29 72.5q0 44 25.5 75.5t68 57.5t95.5 50l14 -44q-48 -31 -76.5 -57t-28.5 -60q0 -16 8 -27t24 -11q10 0 19 6t17 18l61 -44q-9 -17 -26 -32.5t-40.5 -25t-52.5 -9.5zM313 -10q-79 0 -141 35.5t-98 97.5t-36 141t36 141t98 97.5t141 35.5
q78 0 140 -35.5t97.5 -97.5t35.5 -141t-35.5 -141t-97.5 -97.5t-140 -35.5zM313 99q43 0 76.5 22t53 59t18.5 84q1 48 -18.5 85t-53 58.5t-76.5 21.5t-77.5 -21.5t-53.5 -59t-19 -84.5t19 -84t53.5 -59t77.5 -22z" />
    <glyph glyph-name="uni01F1" unicode="&#x1f1;" horiz-adv-x="1379" 
d="M94 0v700h281q76 0 137.5 -25t106 -72t68 -111t23.5 -142t-23.5 -142.5t-67.5 -111t-106 -71.5t-138 -25h-281zM224 101l-10 19h156q49 0 87.5 16t65.5 46t41 72.5t14 95.5t-14 95.5t-41.5 72.5t-65.5 46t-87 16h-159l13 17v-496zM772 0v91l391 522l31 -35h-396v122h515
v-90l-389 -523l-32 33h432v-120h-552z" />
    <glyph glyph-name="uni01F2" unicode="&#x1f2;" horiz-adv-x="1263" 
d="M94 0v700h281q76 0 137.5 -25t106 -72t68 -111t23.5 -142t-23.5 -142.5t-67.5 -111t-106 -71.5t-138 -25h-281zM224 101l-10 19h156q49 0 87.5 16t65.5 46t41 72.5t14 95.5t-14 95.5t-41.5 72.5t-65.5 46t-87 16h-159l13 17v-496zM806 0v88l275 362v-26h-275v103h403v-88
l-267 -355l-4 19h278v-103h-410z" />
    <glyph glyph-name="Aringacute" unicode="&#x1fa;" horiz-adv-x="698" 
d="M16 0l273 700h122l271 -700h-135l-150 398q-5 12 -13.5 38t-18.5 56.5t-18 57t-12 38.5l25 1q-6 -20 -14 -45t-17 -52t-17.5 -52t-15.5 -45l-150 -395h-130zM140 160l45 113h319l48 -113h-412zM348 677q-30 0 -57 15.5t-43.5 40.5t-16.5 55q0 32 16.5 58t43.5 41t57 15
q31 0 58 -15t43.5 -41t16.5 -58q0 -30 -16.5 -55t-43.5 -40.5t-58 -15.5zM348 744q20 0 33.5 13t13.5 31q0 22 -14 33.5t-33 11.5t-32.5 -12.5t-13.5 -32.5q0 -18 13.5 -31t32.5 -13zM274 924l-31 63l192 113l50 -99z" />
    <glyph glyph-name="aringacute" unicode="&#x1fb;" horiz-adv-x="642" 
d="M271 -10q-65 0 -118 36t-85 98t-32 141t32 141t87 97t124 35q40 0 73 -11.5t58 -32.5t41.5 -48t22.5 -58l-27 7v132h124v-527h-125v126l29 5q-7 -27 -25.5 -52.5t-46 -45t-61 -31.5t-71.5 -12zM305 99q43 0 76 21t51.5 58.5t18.5 86.5q0 48 -18.5 85t-51.5 58t-76 21
t-75.5 -21t-50.5 -58t-18 -85q0 -49 18 -86.5t50.5 -58.5t75.5 -21zM321 604q-29 0 -55 15t-42 40t-16 54q0 30 15.5 55t41.5 40t56 15q31 0 57 -15t41.5 -40t15.5 -55q0 -29 -15.5 -54t-41.5 -40t-57 -15zM321 670q19 0 32.5 12.5t13.5 30.5q0 19 -13.5 31t-32.5 12
t-32 -12t-13 -31q0 -18 13.5 -30.5t31.5 -12.5zM249 848l-39 59l156 130l68 -89z" />
    <glyph glyph-name="AEacute" unicode="&#x1fc;" horiz-adv-x="1007" 
d="M0 0l488 700h449v-110h-328v-181h283v-108h-283v-191h328v-110h-450v149h-265l73 107h192v302l25 -8l-376 -550h-136zM596 752l-31 63l192 113l50 -99z" />
    <glyph glyph-name="aeacute" unicode="&#x1fd;" horiz-adv-x="899" 
d="M215 -10q-51 0 -91 20t-64 55.5t-24 83.5q0 41 15.5 73t45.5 53t74 31.5t102 10.5h482l-13 -15v23q-2 30 -19 53.5t-43.5 37t-57.5 13.5q-47 0 -79 -18.5t-48.5 -54t-16.5 -88.5q0 -49 23.5 -87t63.5 -59.5t93 -21.5q37 0 69 12t68 43l57 -87q-27 -24 -61.5 -41.5
t-71.5 -27t-74 -9.5q-83 0 -145.5 34t-97 95t-34.5 140q0 61 19.5 112t53.5 88.5t80.5 58t99.5 20.5q70 -1 125 -34.5t86 -92t31 -133.5l-1 -45h-596q-26 0 -47 -5t-35.5 -15.5t-21.5 -24.5t-7 -33q0 -20 10 -35t27 -23.5t40 -8.5q32 0 61.5 11.5t52.5 31t36 44.5l47 -72
q-22 -34 -56 -59.5t-74.5 -39.5t-83.5 -14zM367 254v94q0 18 -8 33.5t-22 25.5t-33 16t-41 6q-42 0 -75 -17t-60 -52l-77 76q28 32 62.5 55t74.5 35t85 12q47 0 84.5 -10t64.5 -30t41 -49t14 -68v-122zM379 600l-39 59l156 130l68 -89z" />
    <glyph glyph-name="Oslashacute" unicode="&#x1fe;" horiz-adv-x="783" 
d="M129 -33l-63 53l589 721l68 -47zM396 -10q-76 0 -140 27t-111.5 75.5t-73 114.5t-25.5 144t25.5 144t73 114.5t111.5 75.5t139 27q76 0 140 -27t111.5 -76t73 -114.5t25.5 -143.5q0 -77 -25.5 -143t-73 -115t-111.5 -76t-139 -27zM395 114q48 0 87.5 17.5t68.5 50
t45.5 75.5t16.5 94t-16.5 94t-45.5 75.5t-68.5 50t-87.5 17.5q-47 0 -86.5 -17.5t-69 -49.5t-45.5 -75t-16 -95q0 -51 16 -94.5t45.5 -75.5t69 -49.5t86.5 -17.5zM316 752l-31 63l192 113l50 -99z" />
    <glyph glyph-name="oslashacute" unicode="&#x1ff;" horiz-adv-x="624" 
d="M112 -35l-66 48l456 537l67 -49zM313 -10q-79 0 -141 35.5t-98 97.5t-36 141t36 141t98 97.5t141 35.5q78 0 140 -35.5t97.5 -97.5t35.5 -141t-35.5 -141t-97.5 -97.5t-140 -35.5zM313 99q43 0 76.5 22t53 59t18.5 84q1 48 -18.5 85t-53 58.5t-76.5 21.5t-77.5 -21.5
t-53.5 -59t-19 -84.5t19 -84t53.5 -59t77.5 -22zM239 600l-39 59l156 130l68 -89z" />
    <glyph glyph-name="uni0200" unicode="&#x200;" horiz-adv-x="698" 
d="M16 0l273 700h122l271 -700h-135l-150 398q-5 12 -13.5 38t-18.5 56.5t-18 57t-12 38.5l25 1q-6 -20 -14 -45t-17 -52t-17.5 -52t-15.5 -45l-150 -395h-130zM140 160l45 113h319l48 -113h-412zM464 747l-167 114l76 83l135 -142zM257 746l-169 113l75 84l138 -141z" />
    <glyph glyph-name="uni0201" unicode="&#x201;" horiz-adv-x="642" 
d="M271 -10q-65 0 -118 36t-85 98t-32 141t32 141t87 97t124 35q40 0 73 -11.5t58 -32.5t41.5 -48t22.5 -58l-27 7v132h124v-527h-125v126l29 5q-7 -27 -25.5 -52.5t-46 -45t-61 -31.5t-71.5 -12zM305 99q43 0 76 21t51.5 58.5t18.5 86.5q0 48 -18.5 85t-51.5 58t-76 21
t-75.5 -21t-50.5 -58t-18 -85q0 -49 18 -86.5t50.5 -58.5t75.5 -21zM422 599l-172 110l75 83l143 -143zM221 600l-176 107l74 85l146 -141z" />
    <glyph glyph-name="uni0202" unicode="&#x202;" horiz-adv-x="698" 
d="M16 0l273 700h122l271 -700h-135l-150 398q-5 12 -13.5 38t-18.5 56.5t-18 57t-12 38.5l25 1q-6 -20 -14 -45t-17 -52t-17.5 -52t-15.5 -45l-150 -395h-130zM140 160l45 113h319l48 -113h-412zM265 753l-84 12q9 40 32.5 71.5t58.5 50.5t77 19q43 0 77.5 -19t58.5 -50.5
t32 -71.5l-84 -12q-11 26 -33 44.5t-51 18.5t-51 -18.5t-33 -44.5z" />
    <glyph glyph-name="uni0203" unicode="&#x203;" horiz-adv-x="642" 
d="M271 -10q-65 0 -118 36t-85 98t-32 141t32 141t87 97t124 35q40 0 73 -11.5t58 -32.5t41.5 -48t22.5 -58l-27 7v132h124v-527h-125v126l29 5q-7 -27 -25.5 -52.5t-46 -45t-61 -31.5t-71.5 -12zM305 99q43 0 76 21t51.5 58.5t18.5 86.5q0 48 -18.5 85t-51.5 58t-76 21
t-75.5 -21t-50.5 -58t-18 -85q0 -49 18 -86.5t50.5 -58.5t75.5 -21zM238 603l-84 12q14 72 58 114t110 42t110 -42t58 -114l-84 -12q-12 37 -34 58t-50 21t-50 -21t-34 -58z" />
    <glyph glyph-name="uni0204" unicode="&#x204;" horiz-adv-x="625" 
d="M94 0v700h458v-118h-330v-464h334v-118h-462zM154 300v116h347v-116h-347zM448 747l-167 114l76 83l135 -142zM241 746l-169 113l75 84l138 -141z" />
    <glyph glyph-name="uni0205" unicode="&#x205;" horiz-adv-x="586" 
d="M319 -10q-83 0 -146.5 35t-99 95.5t-35.5 138.5q0 62 20 113t55.5 88.5t85 58t108.5 20.5q52 0 97 -20t78 -54.5t50.5 -82t16.5 -103.5l-1 -43h-427l-23 84h347l-16 -17v22q-3 31 -20 54.5t-43.5 37t-58.5 13.5q-49 0 -82.5 -19t-50.5 -54.5t-17 -88.5q0 -51 21.5 -89
t61 -58.5t92.5 -20.5q37 0 68 12t67 43l61 -85q-27 -25 -61.5 -42.5t-72.5 -27.5t-75 -10zM407 599l-172 110l75 83l143 -143zM206 600l-176 107l74 85l146 -141z" />
    <glyph glyph-name="uni0206" unicode="&#x206;" horiz-adv-x="625" 
d="M94 0v700h458v-118h-330v-464h334v-118h-462zM154 300v116h347v-116h-347zM248 753l-84 12q9 40 32.5 71.5t58.5 50.5t77 19q43 0 77.5 -19t58.5 -50.5t32 -71.5l-84 -12q-11 26 -33 44.5t-51 18.5t-51 -18.5t-33 -44.5z" />
    <glyph glyph-name="uni0207" unicode="&#x207;" horiz-adv-x="586" 
d="M319 -10q-83 0 -146.5 35t-99 95.5t-35.5 138.5q0 62 20 113t55.5 88.5t85 58t108.5 20.5q52 0 97 -20t78 -54.5t50.5 -82t16.5 -103.5l-1 -43h-427l-23 84h347l-16 -17v22q-3 31 -20 54.5t-43.5 37t-58.5 13.5q-49 0 -82.5 -19t-50.5 -54.5t-17 -88.5q0 -51 21.5 -89
t61 -58.5t92.5 -20.5q37 0 68 12t67 43l61 -85q-27 -25 -61.5 -42.5t-72.5 -27.5t-75 -10zM223 603l-84 12q14 72 58 114t110 42t110 -42t58 -114l-84 -12q-12 37 -34 58t-50 21t-50 -21t-34 -58z" />
    <glyph glyph-name="uni0208" unicode="&#x208;" horiz-adv-x="505" 
d="M73 0v115h115v470h-115v115h360v-115h-115v-470h115v-115h-360zM368 747l-167 114l76 83l135 -142zM161 746l-169 113l75 84l138 -141z" />
    <glyph glyph-name="uni0209" unicode="&#x209;" horiz-adv-x="259" 
d="M68 0v527h123v-527h-123zM229 599l-172 110l75 83l143 -143zM28 600l-176 107l74 85l146 -141z" />
    <glyph glyph-name="uni020A" unicode="&#x20a;" horiz-adv-x="505" 
d="M73 0v115h115v470h-115v115h360v-115h-115v-470h115v-115h-360zM169 753l-84 12q9 40 32.5 71.5t58.5 50.5t77 19q43 0 77.5 -19t58.5 -50.5t32 -71.5l-84 -12q-11 26 -33 44.5t-51 18.5t-51 -18.5t-33 -44.5z" />
    <glyph glyph-name="uni020B" unicode="&#x20b;" horiz-adv-x="259" 
d="M68 0v527h123v-527h-123zM45 603l-84 12q14 72 58 114t110 42t110 -42t58 -114l-84 -12q-12 37 -34 58t-50 21t-50 -21t-34 -58z" />
    <glyph glyph-name="uni020C" unicode="&#x20c;" horiz-adv-x="793" 
d="M396 -10q-75 0 -139 27t-111.5 75.5t-73.5 114.5t-26 144t26 144t73.5 114.5t111.5 75.5t139 27q76 0 140 -27t111 -76t73 -114.5t26 -143.5q0 -77 -26 -143t-73 -115t-111 -76t-140 -27zM396 114q48 0 87.5 17.5t68.5 50t45.5 75.5t16.5 94t-16.5 94t-45.5 75.5
t-68.5 50t-87.5 17.5q-47 0 -87 -17.5t-69 -49.5t-45 -75t-16 -95q0 -51 16 -94.5t45 -75.5t69 -49.5t87 -17.5zM511 747l-167 114l76 83l135 -142zM304 746l-169 113l75 84l138 -141z" />
    <glyph glyph-name="uni020D" unicode="&#x20d;" horiz-adv-x="624" 
d="M313 -10q-79 0 -141 35.5t-98 97.5t-36 141t36 141t98 97.5t141 35.5q78 0 140 -35.5t97.5 -97.5t35.5 -141t-35.5 -141t-97.5 -97.5t-140 -35.5zM313 99q43 0 76.5 22t53 59t18.5 84q1 48 -18.5 85t-53 58.5t-76.5 21.5t-77.5 -21.5t-53.5 -59t-19 -84.5t19 -84
t53.5 -59t77.5 -22zM413 599l-172 110l75 83l143 -143zM212 600l-176 107l74 85l146 -141z" />
    <glyph glyph-name="uni020E" unicode="&#x20e;" horiz-adv-x="793" 
d="M396 -10q-75 0 -139 27t-111.5 75.5t-73.5 114.5t-26 144t26 144t73.5 114.5t111.5 75.5t139 27q76 0 140 -27t111 -76t73 -114.5t26 -143.5q0 -77 -26 -143t-73 -115t-111 -76t-140 -27zM396 114q48 0 87.5 17.5t68.5 50t45.5 75.5t16.5 94t-16.5 94t-45.5 75.5
t-68.5 50t-87.5 17.5q-47 0 -87 -17.5t-69 -49.5t-45 -75t-16 -95q0 -51 16 -94.5t45 -75.5t69 -49.5t87 -17.5zM312 753l-84 12q9 40 32.5 71.5t58.5 50.5t77 19q43 0 77.5 -19t58.5 -50.5t32 -71.5l-84 -12q-11 26 -33 44.5t-51 18.5t-51 -18.5t-33 -44.5z" />
    <glyph glyph-name="uni020F" unicode="&#x20f;" horiz-adv-x="624" 
d="M313 -10q-79 0 -141 35.5t-98 97.5t-36 141t36 141t98 97.5t141 35.5q78 0 140 -35.5t97.5 -97.5t35.5 -141t-35.5 -141t-97.5 -97.5t-140 -35.5zM313 99q43 0 76.5 22t53 59t18.5 84q1 48 -18.5 85t-53 58.5t-76.5 21.5t-77.5 -21.5t-53.5 -59t-19 -84.5t19 -84
t53.5 -59t77.5 -22zM228 603l-84 12q14 72 58 114t110 42t110 -42t58 -114l-84 -12q-12 37 -34 58t-50 21t-50 -21t-34 -58z" />
    <glyph glyph-name="uni0210" unicode="&#x210;" horiz-adv-x="697" 
d="M94 0v700h304q63 0 115 -29.5t82.5 -80t30.5 -113.5q0 -60 -30.5 -110.5t-82 -80t-115.5 -29.5h-177v-257h-127zM500 0l-178 316l134 25l198 -342zM221 370h178q29 0 50.5 13.5t33.5 37.5t12 53q0 33 -15 57t-42 38t-62 14h-155v-213zM438 747l-167 114l76 83l135 -142z
M231 746l-169 113l75 84l138 -141z" />
    <glyph glyph-name="uni0211" unicode="&#x211;" horiz-adv-x="421" 
d="M72 0v527h121l2 -168l-17 38q11 40 38 72t62.5 50.5t74.5 18.5q17 0 32.5 -3t25.5 -7l-33 -135q-11 6 -27 10t-32 4q-25 0 -47.5 -9.5t-39.5 -26.5t-26.5 -39.5t-9.5 -50.5v-281h-124zM350 599l-172 110l75 83l143 -143zM149 600l-176 107l74 85l146 -141z" />
    <glyph glyph-name="uni0212" unicode="&#x212;" horiz-adv-x="697" 
d="M94 0v700h304q63 0 115 -29.5t82.5 -80t30.5 -113.5q0 -60 -30.5 -110.5t-82 -80t-115.5 -29.5h-177v-257h-127zM500 0l-178 316l134 25l198 -342zM221 370h178q29 0 50.5 13.5t33.5 37.5t12 53q0 33 -15 57t-42 38t-62 14h-155v-213zM239 753l-84 12q9 40 32.5 71.5
t58.5 50.5t77 19q43 0 77.5 -19t58.5 -50.5t32 -71.5l-84 -12q-11 26 -33 44.5t-51 18.5t-51 -18.5t-33 -44.5z" />
    <glyph glyph-name="uni0213" unicode="&#x213;" horiz-adv-x="421" 
d="M72 0v527h121l2 -168l-17 38q11 40 38 72t62.5 50.5t74.5 18.5q17 0 32.5 -3t25.5 -7l-33 -135q-11 6 -27 10t-32 4q-25 0 -47.5 -9.5t-39.5 -26.5t-26.5 -39.5t-9.5 -50.5v-281h-124zM165 603l-84 12q14 72 58 114t110 42t110 -42t58 -114l-84 -12q-12 37 -34 58t-50 21
t-50 -21t-34 -58z" />
    <glyph glyph-name="uni0214" unicode="&#x214;" horiz-adv-x="749" 
d="M374 -6q-83 0 -148 35.5t-102.5 98t-37.5 141.5v432h131v-423q0 -47 21.5 -83.5t57.5 -58.5t78 -22q46 0 83 22t58.5 58.5t21.5 83.5v423h126v-432q0 -79 -37.5 -141.5t-102.5 -98t-149 -35.5zM489 747l-167 114l76 83l135 -142zM282 746l-169 113l75 84l138 -141z" />
    <glyph glyph-name="uni0215" unicode="&#x215;" horiz-adv-x="618" 
d="M255 -10q-57 0 -99 25.5t-64 73t-22 113.5v325h123v-299q0 -42 13 -71.5t38 -45.5t60 -16q26 0 47.5 8.5t37.5 24t25 37t9 46.5v316h123v-527h-120l-2 110l22 12q-12 -38 -40.5 -67.5t-67.5 -47t-83 -17.5zM410 599l-172 110l75 83l143 -143zM209 600l-176 107l74 85
l146 -141z" />
    <glyph glyph-name="uni0216" unicode="&#x216;" horiz-adv-x="749" 
d="M374 -6q-83 0 -148 35.5t-102.5 98t-37.5 141.5v432h131v-423q0 -47 21.5 -83.5t57.5 -58.5t78 -22q46 0 83 22t58.5 58.5t21.5 83.5v423h126v-432q0 -79 -37.5 -141.5t-102.5 -98t-149 -35.5zM290 753l-84 12q9 40 32.5 71.5t58.5 50.5t77 19q43 0 77.5 -19t58.5 -50.5
t32 -71.5l-84 -12q-11 26 -33 44.5t-51 18.5t-51 -18.5t-33 -44.5z" />
    <glyph glyph-name="uni0217" unicode="&#x217;" horiz-adv-x="618" 
d="M255 -10q-57 0 -99 25.5t-64 73t-22 113.5v325h123v-299q0 -42 13 -71.5t38 -45.5t60 -16q26 0 47.5 8.5t37.5 24t25 37t9 46.5v316h123v-527h-120l-2 110l22 12q-12 -38 -40.5 -67.5t-67.5 -47t-83 -17.5zM226 603l-84 12q14 72 58 114t110 42t110 -42t58 -114l-84 -12
q-12 37 -34 58t-50 21t-50 -21t-34 -58z" />
    <glyph glyph-name="uni0218" unicode="&#x218;" horiz-adv-x="627" 
d="M316 -10q-61 0 -112 15.5t-92 46.5t-73 75l85 96q49 -68 96 -94t106 -26q34 0 62 10.5t44 29t16 42.5q0 17 -6.5 31.5t-19.5 26t-32 21.5t-43 17t-53 13q-55 11 -96 29.5t-69 46t-41 62t-13 78.5t19.5 81t53.5 64t79 42t97 15q59 0 105.5 -14t82 -41.5t58.5 -66.5
l-86 -85q-20 31 -45 51.5t-54 31t-61 10.5q-36 0 -62.5 -10t-41.5 -28.5t-15 -44.5q0 -20 9 -35.5t25.5 -27.5t42.5 -21t59 -16q55 -11 99 -29.5t75 -44t47 -58t16 -72.5q0 -69 -32.5 -118.5t-91.5 -76t-138 -26.5zM282 -261l-30 47q14 4 28.5 12.5t23.5 19.5t9 22
q0 6 -4.5 10.5t-16.5 8.5q-19 6 -26 16t-7 27q0 26 20 40.5t51 14.5q36 0 61 -22.5t25 -61.5q0 -23 -9.5 -43t-27 -37t-42.5 -31t-55 -23z" />
    <glyph glyph-name="uni0219" unicode="&#x219;" horiz-adv-x="485" 
d="M248 -10q-70 0 -125.5 23.5t-90.5 67.5l80 69q30 -34 67 -49t78 -15q17 0 30.5 4t23.5 12t15.5 18.5t5.5 23.5q0 24 -18 38q-10 7 -31.5 15t-55.5 16q-54 14 -90 32.5t-56 41.5q-17 19 -25.5 43t-8.5 52q0 35 15.5 63.5t42.5 49.5t63 32t75 11q40 0 77.5 -10t70 -28.5
t55.5 -44.5l-68 -75q-19 18 -41.5 32t-45.5 22.5t-43 8.5q-19 0 -34 -3.5t-25 -10.5t-15.5 -17.5t-5.5 -24.5q1 -12 6.5 -22.5t15.5 -17.5q11 -7 33 -16t57 -17q49 -13 82 -29t52 -37q19 -18 27 -42t8 -53q0 -47 -26.5 -84t-72 -58t-102.5 -21zM198 -260l-30 46
q14 5 28.5 13.5t23.5 19t9 21.5q0 7 -4.5 11.5t-16.5 7.5q-19 7 -26 17t-7 27q0 26 20 40.5t52 14.5q35 0 60 -22.5t25 -63.5q0 -21 -9.5 -40.5t-27 -36.5t-42.5 -31t-55 -24z" />
    <glyph glyph-name="uni021A" unicode="&#x21a;" horiz-adv-x="604" 
d="M234 0v580h-200v120h536v-120h-206v-580h-130zM250 -261l-30 47q14 4 28.5 12.5t23.5 19.5t9 22q0 6 -4.5 10.5t-16.5 8.5q-19 6 -26 16t-7 27q0 26 20 40.5t51 14.5q36 0 61 -22.5t25 -61.5q0 -23 -9.5 -43t-27 -37t-42.5 -31t-55 -23z" />
    <glyph glyph-name="uni021B" unicode="&#x21b;" horiz-adv-x="389" 
d="M129 0v661h123v-661h-123zM25 413v114h342v-114h-342zM143 -260l-30 46q14 5 28.5 13.5t23.5 19t9 21.5q0 7 -4.5 11.5t-16.5 7.5q-19 7 -26 17t-7 27q0 26 20 40.5t52 14.5q35 0 60 -22.5t25 -63.5q0 -21 -9.5 -40.5t-27 -36.5t-42.5 -31t-55 -24z" />
    <glyph glyph-name="uni022A" unicode="&#x22a;" horiz-adv-x="793" 
d="M396 -10q-75 0 -139 27t-111.5 75.5t-73.5 114.5t-26 144t26 144t73.5 114.5t111.5 75.5t139 27q76 0 140 -27t111 -76t73 -114.5t26 -143.5q0 -77 -26 -143t-73 -115t-111 -76t-140 -27zM396 114q48 0 87.5 17.5t68.5 50t45.5 75.5t16.5 94t-16.5 94t-45.5 75.5
t-68.5 50t-87.5 17.5q-47 0 -87 -17.5t-69 -49.5t-45 -75t-16 -95q0 -51 16 -94.5t45 -75.5t69 -49.5t87 -17.5zM506 757q-38 0 -57 19.5t-19 52.5q0 29 19 50.5t57 21.5q37 0 56 -19.5t19 -52.5q0 -29 -19 -50.5t-56 -21.5zM286 757q-37 0 -56 19.5t-19 52.5q0 29 19 50.5
t56 21.5q38 0 57 -19.5t19 -52.5q0 -29 -19 -50.5t-57 -21.5zM225 952v84h341v-84h-341z" />
    <glyph glyph-name="uni022B" unicode="&#x22b;" horiz-adv-x="624" 
d="M313 -10q-79 0 -141 35.5t-98 97.5t-36 141t36 141t98 97.5t141 35.5q78 0 140 -35.5t97.5 -97.5t35.5 -141t-35.5 -141t-97.5 -97.5t-140 -35.5zM313 99q43 0 76.5 22t53 59t18.5 84q1 48 -18.5 85t-53 58.5t-76.5 21.5t-77.5 -21.5t-53.5 -59t-19 -84.5t19 -84
t53.5 -59t77.5 -22zM419 638q-36 0 -55.5 19t-19.5 53q0 32 20 52.5t55 20.5q36 0 56 -19t20 -54q0 -32 -20.5 -52t-55.5 -20zM205 638q-36 0 -55.5 19t-19.5 53q0 32 20 52.5t55 20.5q36 0 55.5 -19t19.5 -54q0 -32 -20 -52t-55 -20zM161 836v84h302v-84h-302z" />
    <glyph glyph-name="uni022C" unicode="&#x22c;" horiz-adv-x="793" 
d="M396 -10q-75 0 -139 27t-111.5 75.5t-73.5 114.5t-26 144t26 144t73.5 114.5t111.5 75.5t139 27q76 0 140 -27t111 -76t73 -114.5t26 -143.5q0 -77 -26 -143t-73 -115t-111 -76t-140 -27zM396 114q48 0 87.5 17.5t68.5 50t45.5 75.5t16.5 94t-16.5 94t-45.5 75.5
t-68.5 50t-87.5 17.5q-47 0 -87 -17.5t-69 -49.5t-45 -75t-16 -95q0 -51 16 -94.5t45 -75.5t69 -49.5t87 -17.5zM471 768q-22 0 -44.5 7t-44.5 16q-17 7 -29 11t-22 4q-14 0 -22 -9.5t-8 -28.5h-85q0 58 35 90.5t83 32.5q20 0 39.5 -6t40.5 -16q15 -6 27.5 -10t21.5 -4
q14 0 21.5 10t6.5 26h84q0 -32 -12.5 -60.5t-36 -45.5t-55.5 -17zM225 952v84h341v-84h-341z" />
    <glyph glyph-name="uni022D" unicode="&#x22d;" horiz-adv-x="624" 
d="M313 -10q-79 0 -141 35.5t-98 97.5t-36 141t36 141t98 97.5t141 35.5q78 0 140 -35.5t97.5 -97.5t35.5 -141t-35.5 -141t-97.5 -97.5t-140 -35.5zM313 99q43 0 76.5 22t53 59t18.5 84q1 48 -18.5 85t-53 58.5t-76.5 21.5t-77.5 -21.5t-53.5 -59t-19 -84.5t19 -84
t53.5 -59t77.5 -22zM370 615q-19 0 -34 7t-33 21q-18 16 -28 22t-18 6q-13 0 -23.5 -13.5t-14.5 -41.5l-75 11q1 52 31 89t81 37q19 0 33.5 -7t32.5 -20q18 -14 27.5 -21t18.5 -7q14 0 24 13.5t13 40.5l76 -11q-1 -33 -15 -62.5t-38.5 -46.5t-57.5 -17zM161 834v84h302v-84
h-302z" />
    <glyph glyph-name="uni0230" unicode="&#x230;" horiz-adv-x="793" 
d="M396 -10q-75 0 -139 27t-111.5 75.5t-73.5 114.5t-26 144t26 144t73.5 114.5t111.5 75.5t139 27q76 0 140 -27t111 -76t73 -114.5t26 -143.5q0 -77 -26 -143t-73 -115t-111 -76t-140 -27zM396 114q48 0 87.5 17.5t68.5 50t45.5 75.5t16.5 94t-16.5 94t-45.5 75.5
t-68.5 50t-87.5 17.5q-47 0 -87 -17.5t-69 -49.5t-45 -75t-16 -95q0 -51 16 -94.5t45 -75.5t69 -49.5t87 -17.5zM396 758q-39 0 -58.5 19.5t-19.5 51.5q0 29 19.5 50.5t58.5 21.5t58.5 -19.5t19.5 -52.5q0 -28 -19.5 -49.5t-58.5 -21.5zM225 952v84h341v-84h-341z" />
    <glyph glyph-name="uni0231" unicode="&#x231;" horiz-adv-x="624" 
d="M313 -10q-79 0 -141 35.5t-98 97.5t-36 141t36 141t98 97.5t141 35.5q78 0 140 -35.5t97.5 -97.5t35.5 -141t-35.5 -141t-97.5 -97.5t-140 -35.5zM313 99q43 0 76.5 22t53 59t18.5 84q1 48 -18.5 85t-53 58.5t-76.5 21.5t-77.5 -21.5t-53.5 -59t-19 -84.5t19 -84
t53.5 -59t77.5 -22zM312 639q-37 0 -57.5 18.5t-20.5 52.5q0 32 21 52t57 20q37 0 57.5 -19t20.5 -53q0 -31 -21 -51t-57 -20zM161 836v84h302v-84h-302z" />
    <glyph glyph-name="uni0232" unicode="&#x232;" horiz-adv-x="670" 
d="M280 0v349l7 -49l-283 400h152l216 -310l-47 3l195 307h146l-271 -411l15 68v-357h-130zM164 788v84h341v-84h-341z" />
    <glyph glyph-name="uni0233" unicode="&#x233;" horiz-adv-x="595" 
d="M152 -230l112 259l1 -82l-260 580h142l145 -344q7 -13 14 -34.5t12 -42.5l-25 -8q7 19 15 40.5t15 44.5l124 344h143l-220 -527l-90 -230h-128zM147 641v84h302v-84h-302z" />
    <glyph glyph-name="uni0237" unicode="&#x237;" horiz-adv-x="281" 
d="M13 -201l-47 94q42 0 67.5 13t38 40t12.5 69v512h123v-541q0 -59 -24 -101t-67.5 -64t-102.5 -22z" />
    <glyph glyph-name="uni0259" unicode="&#x259;" horiz-adv-x="586" 
d="M279 -12q-70 1 -125 34.5t-86 92t-31 133.5l1 43h427l23 -84h-347l16 17v-22q3 -30 20 -54t43.5 -37.5t58.5 -13.5q49 0 82.5 19t50.5 55t17 88q0 51 -21.5 88.5t-60.5 58.5t-93 21q-37 0 -68 -12t-67 -43l-61 85q28 25 62 42.5t72 27.5t75 10q84 0 147 -34.5t98.5 -95.5
t35.5 -139q0 -62 -20 -113t-55.5 -88.5t-85 -58t-108.5 -20.5z" />
    <glyph glyph-name="uni0272" unicode="&#x272;" horiz-adv-x="622" 
d="M14 -201l-47 94q31 0 53 7t36.5 21.5t21.5 36t7 52.5v517h120l2 -121l-15 21q15 31 43 56t64.5 40t74.5 15q60 0 100.5 -24t61 -72t20.5 -120v-322h-123v313q0 41 -11 67t-33.5 38.5t-56.5 11.5q-27 0 -49.5 -8.5t-39 -24t-26 -35.5t-9.5 -44v-333q0 -57 -24 -99
t-67.5 -64.5t-102.5 -22.5z" />
    <glyph glyph-name="uni02BB" unicode="&#x2bb;" horiz-adv-x="253" 
d="M142 463q-29 0 -52 15t-36.5 41.5t-13.5 60.5q0 28 11.5 55t32 51t48 42t59.5 27l40 -50q-40 -17 -65 -41.5t-25 -42.5q0 -12 9.5 -22t20.5 -19q23 -17 31 -30.5t8 -28.5q0 -26 -19 -42t-49 -16z" />
    <glyph glyph-name="uni02BC" unicode="&#x2bc;" horiz-adv-x="221" 
d="M40 440l22 260h134l-82 -260h-74z" />
    <glyph glyph-name="uni02BE" unicode="&#x2be;" horiz-adv-x="221" 
d="M59 527v68q18 0 30.5 11.5t12.5 28.5q0 19 -12 30.5t-31 11.5v68q31 0 56.5 -15t41 -39.5t15.5 -55.5q0 -29 -16 -53.5t-41.5 -39.5t-55.5 -15z" />
    <glyph glyph-name="uni02BF" unicode="&#x2bf;" horiz-adv-x="221" 
d="M149 527q-29 0 -55.5 15t-42.5 39t-16 54q0 31 15.5 55.5t41 39.5t55.5 15l2 -68q-20 0 -32 -11t-12 -31q0 -17 12 -28.5t32 -11.5v-68z" />
    <glyph glyph-name="circumflex" unicode="&#x2c6;" horiz-adv-x="500" 
d="M125 603l-45 39l125 119h90l125 -119l-45 -39l-140 77h30z" />
    <glyph glyph-name="caron" unicode="&#x2c7;" horiz-adv-x="500" 
d="M205 605l-117 119l45 39l132 -78h-30l132 78l45 -39l-117 -119h-90z" />
    <glyph glyph-name="uni02C8" unicode="&#x2c8;" horiz-adv-x="231" 
d="M67 368v344h97v-344h-97z" />
    <glyph glyph-name="uni02CC" unicode="&#x2cc;" horiz-adv-x="239" 
d="M66 -147v344h107v-344h-107z" />
    <glyph glyph-name="breve" unicode="&#x2d8;" horiz-adv-x="402" 
d="M250 591q-66 0 -110 42t-58 114l84 12q12 -36 34 -57.5t50 -21.5t50 21.5t34 57.5l84 -12q-14 -72 -58 -114t-110 -42z" />
    <glyph glyph-name="dotaccent" unicode="&#x2d9;" horiz-adv-x="500" 
d="M250 637q-37 0 -57.5 18.5t-20.5 52.5q0 32 21 52t57 20q37 0 57.5 -19t20.5 -53q0 -31 -21 -51t-57 -20z" />
    <glyph glyph-name="ring" unicode="&#x2da;" horiz-adv-x="500" 
d="M250 602q-29 0 -55 15t-42 40t-16 54q0 30 15.5 55t41.5 40t56 15q31 0 57 -15t41.5 -40t15.5 -55q0 -29 -15.5 -54t-41.5 -40t-57 -15zM250 668q19 0 32.5 12.5t13.5 30.5q0 19 -13.5 31t-32.5 12t-32 -12t-13 -31q0 -18 13.5 -30.5t31.5 -12.5z" />
    <glyph glyph-name="ogonek" unicode="&#x2db;" horiz-adv-x="500" 
d="M250 -204q-31 0 -56.5 14.5t-41 38.5t-15.5 53q0 25 11 46t32 38.5t52.5 31.5t72.5 25l36 -43q-29 -6 -53.5 -19.5t-38.5 -30.5t-14 -34q0 -15 9 -24.5t23 -9.5q10 0 18.5 6.5t16.5 18.5l61 -44q-8 -17 -24 -32.5t-38 -25t-51 -9.5z" />
    <glyph glyph-name="tilde" unicode="&#x2dc;" horiz-adv-x="500" 
d="M308 613q-19 0 -34 7t-33 21q-18 16 -28 22t-18 6q-13 0 -23.5 -13.5t-14.5 -41.5l-75 11q1 52 31 89t81 37q19 0 33.5 -7t32.5 -20q18 -14 27.5 -21t18.5 -7q14 0 24 13.5t13 40.5l76 -11q-1 -33 -15 -62.5t-38.5 -46.5t-57.5 -17z" />
    <glyph glyph-name="hungarumlaut" unicode="&#x2dd;" horiz-adv-x="500" 
d="M286 598l-44 51l146 141l74 -85zM85 597l-46 50l143 143l75 -83z" />
    <glyph glyph-name="gravecomb" unicode="&#x300;" 
d="M323 598l-185 100l68 90l156 -131z" />
    <glyph glyph-name="acutecomb" unicode="&#x301;" 
d="M177 598l-39 59l156 130l68 -89z" />
    <glyph glyph-name="uni0302" unicode="&#x302;" 
d="M125 603l-45 39l125 119h90l125 -119l-45 -39l-140 77h30z" />
    <glyph glyph-name="tildecomb" unicode="&#x303;" 
d="M308 613q-19 0 -34 7t-33 21q-18 16 -28 22t-18 6q-13 0 -23.5 -13.5t-14.5 -41.5l-75 11q1 52 31 89t81 37q19 0 33.5 -7t32.5 -20q18 -14 27.5 -21t18.5 -7q14 0 24 13.5t13 40.5l76 -11q-1 -33 -15 -62.5t-38.5 -46.5t-57.5 -17z" />
    <glyph glyph-name="uni0304" unicode="&#x304;" 
d="M99 639v84h302v-84h-302z" />
    <glyph glyph-name="uni0306" unicode="&#x306;" 
d="M250 591q-66 0 -110 42t-58 114l84 12q12 -36 34 -57.5t50 -21.5t50 21.5t34 57.5l84 -12q-14 -72 -58 -114t-110 -42z" />
    <glyph glyph-name="uni0307" unicode="&#x307;" 
d="M250 637q-37 0 -57.5 18.5t-20.5 52.5q0 32 21 52t57 20q37 0 57.5 -19t20.5 -53q0 -31 -21 -51t-57 -20z" />
    <glyph glyph-name="uni0308" unicode="&#x308;" 
d="M357 636q-36 0 -55.5 19t-19.5 53q0 32 20 52.5t55 20.5q36 0 56 -19t20 -54q0 -32 -20.5 -52t-55.5 -20zM143 636q-36 0 -55.5 19t-19.5 53q0 32 20 52.5t55 20.5q36 0 55.5 -19t19.5 -54q0 -32 -20 -52t-55 -20z" />
    <glyph glyph-name="hookabovecomb" unicode="&#x309;" 
d="M227 590q-7 10 -11.5 20t-4.5 20t5.5 21.5t22.5 22.5q16 11 23 17t7 14q0 9 -8.5 13.5t-21.5 4.5q-18 0 -37.5 -5.5t-38.5 -14.5l-19 71q21 12 48 19t53 7q54 0 83 -23t29 -59q0 -28 -12.5 -43t-26.5 -24q-18 -9 -27.5 -16.5t-9.5 -17.5q0 -3 1 -6.5t2 -6.5z" />
    <glyph glyph-name="uni030A" unicode="&#x30a;" 
d="M250 602q-29 0 -55 15t-42 40t-16 54q0 30 15.5 55t41.5 40t56 15q31 0 57 -15t41.5 -40t15.5 -55q0 -29 -15.5 -54t-41.5 -40t-57 -15zM250 668q19 0 32.5 12.5t13.5 30.5q0 19 -13.5 31t-32.5 12t-32 -12t-13 -31q0 -18 13.5 -30.5t31.5 -12.5z" />
    <glyph glyph-name="uni030B" unicode="&#x30b;" 
d="M286 598l-44 51l146 141l74 -85zM85 597l-46 50l143 143l75 -83z" />
    <glyph glyph-name="uni030C" unicode="&#x30c;" 
d="M205 605l-117 119l45 39l132 -78h-30l132 78l45 -39l-117 -119h-90z" />
    <glyph glyph-name="uni030F" unicode="&#x30f;" 
d="M416 597l-172 110l75 83l143 -143zM215 598l-176 107l74 85l146 -141z" />
    <glyph glyph-name="uni0311" unicode="&#x311;" 
d="M166 601l-84 12q14 72 58 114t110 42t110 -42t58 -114l-84 -12q-12 37 -34 58t-50 21t-50 -21t-34 -58z" />
    <glyph glyph-name="uni0312" unicode="&#x312;" 
d="M253 600q-31 0 -58 20.5t-27 64.5q0 27 13.5 49t34.5 38.5t44.5 28t41.5 17.5l30 -46q-13 -3 -27.5 -11.5t-24 -20t-9.5 -22.5q0 -10 6.5 -13.5t15.5 -6.5q13 -5 22.5 -13t9.5 -30q0 -27 -21 -41t-51 -14z" />
    <glyph glyph-name="uni031B" unicode="&#x31b;" 
d="M154 442v76q49 0 72.5 28.5t23.5 85.5h96q0 -54 -19.5 -97t-62 -68t-110.5 -25z" />
    <glyph glyph-name="dotbelowcomb" unicode="&#x323;" 
d="M250 -212q-38 0 -58.5 18.5t-20.5 53.5q0 32 21 52t58 20q38 0 58.5 -19t20.5 -53q0 -32 -21 -52t-58 -20z" />
    <glyph glyph-name="uni0324" unicode="&#x324;" 
d="M357 -213q-36 0 -55.5 19t-19.5 54q0 32 20 52t55 20q36 0 56 -19t20 -53q0 -32 -20.5 -52.5t-55.5 -20.5zM143 -213q-36 0 -55.5 19t-19.5 54q0 32 20 52t55 20q36 0 55.5 -19t19.5 -53q0 -32 -20 -52.5t-55 -20.5z" />
    <glyph glyph-name="uni0326" unicode="&#x326;" 
d="M198 -260l-30 46q14 5 28.5 13.5t23.5 19t9 21.5q0 7 -4.5 11.5t-16.5 7.5q-19 7 -26 17t-7 27q0 26 20 40.5t52 14.5q35 0 60 -22.5t25 -63.5q0 -21 -9.5 -40.5t-27 -36.5t-42.5 -31t-55 -24z" />
    <glyph glyph-name="uni0327" unicode="&#x327;" 
d="M156 -245l-7 61q22 0 47 7t42 18.5t17 23.5q0 13 -15 20.5t-34 11.5t-34 4l-15 11l71 112h67l-44 -69q51 -9 76 -33.5t25 -60.5q0 -28 -18 -48t-47 -33.5t-63.5 -19.5t-67.5 -5z" />
    <glyph glyph-name="uni0328" unicode="&#x328;" 
d="M250 -204q-31 0 -56.5 14.5t-41 38.5t-15.5 53q0 25 11 46t32 38.5t52.5 31.5t72.5 25l36 -43q-29 -6 -53.5 -19.5t-38.5 -30.5t-14 -34q0 -15 9 -24.5t23 -9.5q10 0 18.5 6.5t16.5 18.5l61 -44q-8 -17 -24 -32.5t-38 -25t-51 -9.5z" />
    <glyph glyph-name="uni032E" unicode="&#x32e;" 
d="M250 -234q-63 0 -108.5 41.5t-59.5 114.5l84 12q12 -37 35 -58t49 -21t49 21t35 58l84 -12q-14 -73 -59.5 -114.5t-108.5 -41.5z" />
    <glyph glyph-name="uni0331" unicode="&#x331;" 
d="M106 -185v89h289v-89h-289z" />
    <glyph glyph-name="uni0335" unicode="&#x335;" 
d="M106 245v100h288v-100h-288z" />
    <glyph glyph-name="uni0394" unicode="&#x394;" horiz-adv-x="711" 
d="M8 0l347 723l352 -723h-699zM149 64l-29 35h480l-37 -38l-228 469h40z" />
    <glyph glyph-name="uni03A9" unicode="&#x3a9;" horiz-adv-x="694" 
d="M43 0v113h176l-31 -32q-49 49 -85.5 103t-56.5 111t-20 113q0 66 24 121.5t67.5 96t102.5 63.5t127 23q69 0 127.5 -23t101.5 -64t67.5 -96.5t24.5 -121.5q0 -55 -20.5 -112t-56.5 -111t-84 -102l-27 31h171v-113h-257v90q22 27 40 48.5t30.5 37t18.5 25.5q21 30 35.5 60
t22 64.5t7.5 75.5t-15 76.5t-42.5 61.5t-64 40.5t-79.5 14.5t-79.5 -14t-63.5 -40.5t-42 -62t-15 -76.5q0 -52 12 -93t33 -76t49 -71q10 -14 19 -25t16 -19.5t12.5 -15t9.5 -11.5v-90h-255z" />
    <glyph glyph-name="uni03BC" unicode="&#x3bc;" horiz-adv-x="605" 
d="M78 -159v686h119v-305q0 -42 11 -70t33 -42.5t54 -14.5q26 0 48 9.5t38 27t25.5 40t9.5 49.5v306h119v-527h-116l-2 109l10 -12q-15 -36 -38.5 -59.5t-54.5 -35.5t-67 -12q-18 0 -34.5 5.5t-29.5 16.5t-18 24l10 27l2 -222h-119z" />
    <glyph glyph-name="pi" unicode="&#x3c0;" horiz-adv-x="625" 
d="M111 0v478l17 -65h-91v115h554v-115h-83l9 27v-440h-112v462l10 -49h-205l13 27v-440h-112z" />
    <glyph glyph-name="uni1E08" unicode="&#x1e08;" horiz-adv-x="684" 
d="M391 -10q-76 0 -139 26t-109 74.5t-71.5 115t-25.5 145.5q0 76 27 141t75 114t112 76t139 27q51 0 99 -15t88 -41.5t67 -61.5l-83 -91q-26 27 -53.5 45.5t-57 28t-60.5 9.5q-46 0 -86.5 -17t-70 -48t-46.5 -73.5t-17 -94.5q0 -53 16.5 -96t47 -74t73 -47.5t93.5 -16.5
q33 0 64 9t57.5 25.5t48.5 38.5l64 -103q-24 -27 -64 -49t-89.5 -34.5t-98.5 -12.5zM289 -245l-8 61q23 0 47.5 7t41.5 18.5t17 23.5q0 13 -15 20.5t-34 11.5t-34 4l-14 11l71 112h67l-44 -69q50 -9 75.5 -33.5t25.5 -60.5q0 -28 -18 -48t-47 -33.5t-63.5 -19.5t-67.5 -5z
M322 752l-31 63l192 113l50 -99z" />
    <glyph glyph-name="uni1E09" unicode="&#x1e09;" horiz-adv-x="539" 
d="M298 -10q-74 0 -133 36t-93 98t-34 140t34 140t93 98t133 36q71 0 129 -27t90 -75l-68 -82q-15 21 -38 38t-49 27t-52 10q-44 0 -78.5 -21.5t-54.5 -59t-20 -84.5t20.5 -84t55.5 -59t78 -22q26 0 50.5 8.5t46.5 24.5t41 40l68 -83q-34 -44 -93.5 -71.5t-125.5 -27.5z
M204 -245l-7 61q22 0 47 7t42 18.5t17 23.5q0 13 -15 20.5t-34 11.5t-34 4l-15 11l71 112h67l-44 -69q51 -9 76 -33.5t25 -60.5q0 -28 -18 -48t-47 -33.5t-63.5 -19.5t-67.5 -5zM225 600l-39 59l156 130l68 -89z" />
    <glyph glyph-name="uni1E0C" unicode="&#x1e0c;" horiz-adv-x="757" 
d="M94 0v700h281q76 0 137.5 -25t106 -72t68 -111t23.5 -142t-23.5 -142.5t-67.5 -111t-106 -71.5t-138 -25h-281zM224 101l-10 19h156q49 0 87.5 16t65.5 46t41 72.5t14 95.5t-14 95.5t-41.5 72.5t-65.5 46t-87 16h-159l13 17v-496zM378 -212q-38 0 -58.5 18.5t-20.5 53.5
q0 32 21 52t58 20q38 0 58.5 -19t20.5 -53q0 -32 -21 -52t-58 -20z" />
    <glyph glyph-name="uni1E0D" unicode="&#x1e0d;" horiz-adv-x="641" 
d="M284 -10q-70 0 -125.5 35.5t-88 97t-32.5 141.5q0 79 32 141t87.5 97.5t125.5 35.5q38 0 73.5 -12t63.5 -32.5t44.5 -45.5t18.5 -52l-33 -4v348h123v-740h-119l-3 124l24 -2q-1 -25 -17.5 -48t-42.5 -42t-60.5 -30.5t-70.5 -11.5zM308 94q43 0 76 22t51.5 60t18.5 88
q0 49 -18.5 87.5t-51.5 60t-76 21.5t-76 -21.5t-51.5 -60t-18.5 -87.5q0 -50 18.5 -88t51.5 -60t76 -22zM321 -212q-38 0 -58.5 18.5t-20.5 53.5q0 32 21 52t58 20q38 0 58.5 -19t20.5 -53q0 -32 -21 -52t-58 -20z" />
    <glyph glyph-name="uni1E0E" unicode="&#x1e0e;" horiz-adv-x="757" 
d="M94 0v700h281q76 0 137.5 -25t106 -72t68 -111t23.5 -142t-23.5 -142.5t-67.5 -111t-106 -71.5t-138 -25h-281zM224 101l-10 19h156q49 0 87.5 16t65.5 46t41 72.5t14 95.5t-14 95.5t-41.5 72.5t-65.5 46t-87 16h-159l13 17v-496zM233 -185v89h289v-89h-289z" />
    <glyph glyph-name="uni1E0F" unicode="&#x1e0f;" horiz-adv-x="641" 
d="M284 -10q-70 0 -125.5 35.5t-88 97t-32.5 141.5q0 79 32 141t87.5 97.5t125.5 35.5q38 0 73.5 -12t63.5 -32.5t44.5 -45.5t18.5 -52l-33 -4v348h123v-740h-119l-3 124l24 -2q-1 -25 -17.5 -48t-42.5 -42t-60.5 -30.5t-70.5 -11.5zM308 94q43 0 76 22t51.5 60t18.5 88
q0 49 -18.5 87.5t-51.5 60t-76 21.5t-76 -21.5t-51.5 -60t-18.5 -87.5q0 -50 18.5 -88t51.5 -60t76 -22zM176 -185v89h289v-89h-289z" />
    <glyph glyph-name="uni1E14" unicode="&#x1e14;" horiz-adv-x="625" 
d="M94 0v700h458v-118h-330v-464h334v-118h-462zM154 300v116h347v-116h-347zM161 788v84h341v-84h-341zM416 916l-211 77l52 99l192 -113z" />
    <glyph glyph-name="uni1E15" unicode="&#x1e15;" horiz-adv-x="586" 
d="M319 -10q-83 0 -146.5 35t-99 95.5t-35.5 138.5q0 62 20 113t55.5 88.5t85 58t108.5 20.5q52 0 97 -20t78 -54.5t50.5 -82t16.5 -103.5l-1 -43h-427l-23 84h347l-16 -17v22q-3 31 -20 54.5t-43.5 37t-58.5 13.5q-49 0 -82.5 -19t-50.5 -54.5t-17 -88.5q0 -51 21.5 -89
t61 -58.5t92.5 -20.5q37 0 68 12t67 43l61 -85q-27 -25 -61.5 -42.5t-72.5 -27.5t-75 -10zM320 757l-120 126l85 63l93 -150zM156 631v84h302v-84h-302z" />
    <glyph glyph-name="uni1E16" unicode="&#x1e16;" horiz-adv-x="625" 
d="M94 0v700h458v-118h-330v-464h334v-118h-462zM154 300v116h347v-116h-347zM161 788v84h341v-84h-341zM257 916l-31 63l192 113l50 -99z" />
    <glyph glyph-name="uni1E17" unicode="&#x1e17;" horiz-adv-x="586" 
d="M319 -10q-83 0 -146.5 35t-99 95.5t-35.5 138.5q0 62 20 113t55.5 88.5t85 58t108.5 20.5q52 0 97 -20t78 -54.5t50.5 -82t16.5 -103.5l-1 -43h-427l-23 84h347l-16 -17v22q-3 31 -20 54.5t-43.5 37t-58.5 13.5q-49 0 -82.5 -19t-50.5 -54.5t-17 -88.5q0 -51 21.5 -89
t61 -58.5t92.5 -20.5q37 0 68 12t67 43l61 -85q-27 -25 -61.5 -42.5t-72.5 -27.5t-75 -10zM156 631v84h302v-84h-302zM309 757l-57 39l92 150l86 -63z" />
    <glyph glyph-name="uni1E1C" unicode="&#x1e1c;" horiz-adv-x="625" 
d="M94 0v700h458v-118h-330v-464h334v-118h-462zM154 300v116h347v-116h-347zM218 -245l-8 61q23 0 47.5 7t41.5 18.5t17 23.5q0 13 -15 20.5t-34 11.5t-34 4l-14 11l71 112h67l-44 -69q50 -9 75.5 -33.5t25.5 -60.5q0 -28 -18 -48t-47 -33.5t-63.5 -19.5t-67.5 -5zM332 753
q-42 0 -77 19t-58.5 50.5t-32.5 70.5l84 12q11 -25 33 -44t51 -19t51 19t33 44l84 -12q-8 -39 -32 -70.5t-58.5 -50.5t-77.5 -19z" />
    <glyph glyph-name="uni1E1D" unicode="&#x1e1d;" horiz-adv-x="586" 
d="M319 -10q-83 0 -146.5 35t-99 95.5t-35.5 138.5q0 62 20 113t55.5 88.5t85 58t108.5 20.5q52 0 97 -20t78 -54.5t50.5 -82t16.5 -103.5l-1 -43h-427l-23 84h347l-16 -17v22q-3 31 -20 54.5t-43.5 37t-58.5 13.5q-49 0 -82.5 -19t-50.5 -54.5t-17 -88.5q0 -51 21.5 -89
t61 -58.5t92.5 -20.5q37 0 68 12t67 43l61 -85q-27 -25 -61.5 -42.5t-72.5 -27.5t-75 -10zM224 -245l-7 61q22 0 47 7t42 18.5t17 23.5q0 13 -15 20.5t-34 11.5t-34 4l-15 11l71 112h67l-44 -69q51 -9 76 -33.5t25 -60.5q0 -28 -18 -48t-47 -33.5t-63.5 -19.5t-67.5 -5z
M307 593q-66 0 -110 42t-58 114l84 12q12 -36 34 -57.5t50 -21.5t50 21.5t34 57.5l84 -12q-14 -72 -58 -114t-110 -42z" />
    <glyph glyph-name="uni1E20" unicode="&#x1e20;" horiz-adv-x="771" 
d="M412 -10q-79 0 -146 27.5t-116.5 76.5t-76.5 114.5t-27 142.5q0 76 27.5 141.5t77.5 114t117.5 75.5t145.5 27q55 0 106 -15t92 -42t68 -61l-82 -86q-28 27 -57.5 45t-61.5 28t-66 10q-50 0 -92.5 -18t-74 -50t-49.5 -75t-18 -94q0 -49 18.5 -93t51.5 -77t76.5 -51.5
t92.5 -18.5q37 0 69 11t57 30.5t38.5 45.5t13.5 56v22l18 -21h-207v116h317q2 -11 3 -24.5t1.5 -26t0.5 -21.5q0 -69 -24 -125.5t-67.5 -97.5t-101 -63.5t-124.5 -22.5zM235 788v84h341v-84h-341z" />
    <glyph glyph-name="uni1E21" unicode="&#x1e21;" horiz-adv-x="656" 
d="M309 -230q-59 0 -117.5 18t-94.5 47l44 91q21 -15 47 -26t55.5 -17t58.5 -6q53 0 88.5 16.5t53.5 50t18 83.5v97l18 -7q-6 -31 -33 -59t-68 -45.5t-84 -17.5q-75 0 -132.5 35t-91 95.5t-33.5 139.5t33 140.5t90.5 97t129.5 35.5q30 0 58 -7t51.5 -20t42.5 -29t31 -34
t15 -35l-26 -8l2 122h121v-491q0 -64 -19 -113t-55 -83.5t-87 -52t-116 -17.5zM314 100q45 0 79.5 21t53.5 58t19 85q0 49 -19.5 86.5t-53.5 58.5t-79 21t-79 -21.5t-53.5 -59t-19.5 -85.5q0 -47 19.5 -84.5t53.5 -58.5t79 -21zM177 641v84h302v-84h-302z" />
    <glyph glyph-name="uni1E24" unicode="&#x1e24;" horiz-adv-x="768" 
d="M543 0v700h130v-700h-130zM94 0v700h130v-700h-130zM148 288v122h458v-122h-458zM384 -212q-38 0 -58.5 18.5t-20.5 53.5q0 32 21 52t58 20q38 0 58.5 -19t20.5 -53q0 -32 -21 -52t-58 -20z" />
    <glyph glyph-name="uni1E25" unicode="&#x1e25;" horiz-adv-x="609" 
d="M72 0v740h122v-321l-23 -12q10 36 39 65.5t69 47.5t82 18q60 0 100.5 -24t61 -72t20.5 -120v-322h-123v313q0 40 -11 66.5t-34 39t-56 11.5q-27 0 -49.5 -8.5t-39 -24t-26 -35.5t-9.5 -44v-318h-61h-33.5h-28.5zM305 -212q-38 0 -58.5 18.5t-20.5 53.5q0 32 21 52t58 20
q38 0 58.5 -19t20.5 -53q0 -32 -21 -52t-58 -20z" />
    <glyph glyph-name="uni1E2A" unicode="&#x1e2a;" horiz-adv-x="768" 
d="M543 0v700h130v-700h-130zM94 0v700h130v-700h-130zM148 288v122h458v-122h-458zM384 -234q-63 0 -108.5 41.5t-59.5 114.5l84 12q12 -37 35 -58t49 -21t49 21t35 58l84 -12q-14 -73 -59.5 -114.5t-108.5 -41.5z" />
    <glyph glyph-name="uni1E2B" unicode="&#x1e2b;" horiz-adv-x="609" 
d="M72 0v740h122v-321l-23 -12q10 36 39 65.5t69 47.5t82 18q60 0 100.5 -24t61 -72t20.5 -120v-322h-123v313q0 40 -11 66.5t-34 39t-56 11.5q-27 0 -49.5 -8.5t-39 -24t-26 -35.5t-9.5 -44v-318h-61h-33.5h-28.5zM305 -234q-63 0 -108.5 41.5t-59.5 114.5l84 12
q12 -37 35 -58t49 -21t49 21t35 58l84 -12q-14 -73 -59.5 -114.5t-108.5 -41.5z" />
    <glyph glyph-name="uni1E2E" unicode="&#x1e2e;" horiz-adv-x="505" 
d="M73 0v115h115v470h-115v115h360v-115h-115v-470h115v-115h-360zM177 929l-31 62l192 113l50 -99zM142 757q-37 0 -56 19.5t-19 52.5q0 29 19 50.5t56 21.5q38 0 57 -19.5t19 -52.5q0 -29 -19 -50.5t-57 -21.5zM362 757q-38 0 -57 19.5t-19 52.5q0 29 19 50.5t57 21.5
q37 0 56 -19.5t19 -52.5q0 -29 -19 -50.5t-56 -21.5z" />
    <glyph glyph-name="uni1E2F" unicode="&#x1e2f;" horiz-adv-x="259" 
d="M68 0v527h123v-527h-123zM23 627q-36 0 -56 19t-20 54q0 32 20.5 52t55.5 20q36 0 55.5 -19t19.5 -53q0 -32 -20 -52.5t-55 -20.5zM237 627q-36 0 -55.5 19t-19.5 54q0 32 20 52t55 20q36 0 55.5 -19t19.5 -53q0 -32 -20 -52.5t-55 -20.5zM140 784l-58 39l85 154l93 -67z
" />
    <glyph glyph-name="uni1E36" unicode="&#x1e36;" horiz-adv-x="602" 
d="M94 0v700h130v-580h323v-120h-453zM302 -212q-38 0 -58.5 18.5t-20.5 53.5q0 32 21 52t58 20q38 0 58.5 -19t20.5 -53q0 -32 -21 -52t-58 -20z" />
    <glyph glyph-name="uni1E37" unicode="&#x1e37;" horiz-adv-x="270" 
d="M73 0v740h124v-740h-124zM135 -212q-38 0 -58.5 18.5t-20.5 53.5q0 32 21 52t58 20q38 0 58.5 -19t20.5 -53q0 -32 -21 -52t-58 -20z" />
    <glyph glyph-name="uni1E3A" unicode="&#x1e3a;" horiz-adv-x="602" 
d="M94 0v700h130v-580h323v-120h-453zM157 -185v89h289v-89h-289z" />
    <glyph glyph-name="uni1E3B" unicode="&#x1e3b;" horiz-adv-x="270" 
d="M73 0v740h124v-740h-124zM-9 -185v89h289v-89h-289z" />
    <glyph glyph-name="uni1E42" unicode="&#x1e42;" horiz-adv-x="869" 
d="M94 0v700h123l255 -415l-72 1l258 414h117v-700h-129v263q0 90 4.5 162t15.5 143l16 -43l-217 -335h-66l-210 332l14 46q11 -67 15.5 -137.5t4.5 -167.5v-263h-129zM434 -212q-38 0 -58.5 18.5t-20.5 53.5q0 32 21 52t58 20q38 0 58.5 -19t20.5 -53q0 -32 -21 -52
t-58 -20z" />
    <glyph glyph-name="uni1E43" unicode="&#x1e43;" horiz-adv-x="936" 
d="M70 0v527h121l2 -106l-20 -8q9 26 27 48.5t43 39t53 26t57 9.5q43 0 76.5 -13.5t56 -42.5t33.5 -74l-19 4l8 16q11 24 31 43.5t45 35t52.5 23.5t54.5 8q60 0 100 -24t60 -73t20 -121v-318h-124v310q0 40 -10.5 66t-32 38.5t-53.5 12.5q-25 0 -47.5 -8.5t-38.5 -24
t-25 -35.5t-9 -44v-315h-124v311q0 38 -11 63.5t-32 39t-51 13.5q-25 0 -47 -8.5t-38 -23.5t-25 -35t-9 -44v-316h-124zM468 -212q-38 0 -58.5 18.5t-20.5 53.5q0 32 21 52t58 20q38 0 58.5 -19t20.5 -53q0 -32 -21 -52t-58 -20z" />
    <glyph glyph-name="uni1E44" unicode="&#x1e44;" horiz-adv-x="798" 
d="M94 0v700h117l406 -547l-22 -4q-4 28 -7 57.5t-5.5 61.5t-4 67t-2.5 73.5t-1 81.5v210h129v-700h-119l-408 539l26 7q5 -56 8.5 -95.5t5.5 -68t3.5 -47.5t2 -34.5t0.5 -29.5v-271h-129zM399 758q-39 0 -58.5 19.5t-19.5 51.5q0 29 19.5 50.5t58.5 21.5t58.5 -19.5
t19.5 -52.5q0 -28 -19.5 -49.5t-58.5 -21.5z" />
    <glyph glyph-name="uni1E45" unicode="&#x1e45;" horiz-adv-x="609" 
d="M72 0v527h120l2 -108l-23 -12q10 36 39 65.5t69 47.5t82 18q60 0 100.5 -24t61 -72t20.5 -120v-322h-123v313q0 40 -11 66.5t-34 39t-56 11.5q-27 0 -49.5 -8.5t-39 -24t-26 -35.5t-9.5 -44v-318h-61h-33.5h-28.5zM335 639q-37 0 -57.5 18.5t-20.5 52.5q0 32 21 52t57 20
q37 0 57.5 -19t20.5 -53q0 -31 -21 -51t-57 -20z" />
    <glyph glyph-name="uni1E46" unicode="&#x1e46;" horiz-adv-x="798" 
d="M94 0v700h117l406 -547l-22 -4q-4 28 -7 57.5t-5.5 61.5t-4 67t-2.5 73.5t-1 81.5v210h129v-700h-119l-408 539l26 7q5 -56 8.5 -95.5t5.5 -68t3.5 -47.5t2 -34.5t0.5 -29.5v-271h-129zM399 -212q-38 0 -58.5 18.5t-20.5 53.5q0 32 21 52t58 20q38 0 58.5 -19t20.5 -53
q0 -32 -21 -52t-58 -20z" />
    <glyph glyph-name="uni1E47" unicode="&#x1e47;" horiz-adv-x="609" 
d="M72 0v527h120l2 -108l-23 -12q10 36 39 65.5t69 47.5t82 18q60 0 100.5 -24t61 -72t20.5 -120v-322h-123v313q0 40 -11 66.5t-34 39t-56 11.5q-27 0 -49.5 -8.5t-39 -24t-26 -35.5t-9.5 -44v-318h-61h-33.5h-28.5zM305 -212q-38 0 -58.5 18.5t-20.5 53.5q0 32 21 52
t58 20q38 0 58.5 -19t20.5 -53q0 -32 -21 -52t-58 -20z" />
    <glyph glyph-name="uni1E48" unicode="&#x1e48;" horiz-adv-x="798" 
d="M94 0v700h117l406 -547l-22 -4q-4 28 -7 57.5t-5.5 61.5t-4 67t-2.5 73.5t-1 81.5v210h129v-700h-119l-408 539l26 7q5 -56 8.5 -95.5t5.5 -68t3.5 -47.5t2 -34.5t0.5 -29.5v-271h-129zM255 -185v89h289v-89h-289z" />
    <glyph glyph-name="uni1E49" unicode="&#x1e49;" horiz-adv-x="609" 
d="M72 0v527h120l2 -108l-23 -12q10 36 39 65.5t69 47.5t82 18q60 0 100.5 -24t61 -72t20.5 -120v-322h-123v313q0 40 -11 66.5t-34 39t-56 11.5q-27 0 -49.5 -8.5t-39 -24t-26 -35.5t-9.5 -44v-318h-61h-33.5h-28.5zM160 -185v89h289v-89h-289z" />
    <glyph glyph-name="uni1E4C" unicode="&#x1e4c;" horiz-adv-x="793" 
d="M396 -10q-75 0 -139 27t-111.5 75.5t-73.5 114.5t-26 144t26 144t73.5 114.5t111.5 75.5t139 27q76 0 140 -27t111 -76t73 -114.5t26 -143.5q0 -77 -26 -143t-73 -115t-111 -76t-140 -27zM396 114q48 0 87.5 17.5t68.5 50t45.5 75.5t16.5 94t-16.5 94t-45.5 75.5
t-68.5 50t-87.5 17.5q-47 0 -87 -17.5t-69 -49.5t-45 -75t-16 -95q0 -51 16 -94.5t45 -75.5t69 -49.5t87 -17.5zM471 768q-22 0 -44.5 7t-44.5 16q-17 7 -29 11t-22 4q-14 0 -22 -9.5t-8 -28.5h-85q0 58 35 90.5t83 32.5q20 0 39.5 -6t40.5 -16q15 -6 27.5 -10t21.5 -4
q14 0 21.5 10t6.5 26h84q0 -32 -12.5 -60.5t-36 -45.5t-55.5 -17zM321 916l-31 63l192 113l50 -99z" />
    <glyph glyph-name="uni1E4D" unicode="&#x1e4d;" horiz-adv-x="624" 
d="M313 -10q-79 0 -141 35.5t-98 97.5t-36 141t36 141t98 97.5t141 35.5q78 0 140 -35.5t97.5 -97.5t35.5 -141t-35.5 -141t-97.5 -97.5t-140 -35.5zM313 99q43 0 76.5 22t53 59t18.5 84q1 48 -18.5 85t-53 58.5t-76.5 21.5t-77.5 -21.5t-53.5 -59t-19 -84.5t19 -84
t53.5 -59t77.5 -22zM370 615q-19 0 -34 7t-33 21q-18 16 -28 22t-18 6q-13 0 -23.5 -13.5t-14.5 -41.5l-75 11q1 52 31 89t81 37q19 0 33.5 -7t32.5 -20q18 -14 27.5 -21t18.5 -7q14 0 24 13.5t13 40.5l76 -11q-1 -33 -15 -62.5t-38.5 -46.5t-57.5 -17zM324 773l-58 39
l93 150l85 -63z" />
    <glyph glyph-name="uni1E4E" unicode="&#x1e4e;" horiz-adv-x="793" 
d="M396 -10q-75 0 -139 27t-111.5 75.5t-73.5 114.5t-26 144t26 144t73.5 114.5t111.5 75.5t139 27q76 0 140 -27t111 -76t73 -114.5t26 -143.5q0 -77 -26 -143t-73 -115t-111 -76t-140 -27zM396 114q48 0 87.5 17.5t68.5 50t45.5 75.5t16.5 94t-16.5 94t-45.5 75.5
t-68.5 50t-87.5 17.5q-47 0 -87 -17.5t-69 -49.5t-45 -75t-16 -95q0 -51 16 -94.5t45 -75.5t69 -49.5t87 -17.5zM471 768q-22 0 -44.5 7t-44.5 16q-17 7 -29 11t-22 4q-14 0 -22 -9.5t-8 -28.5h-85q0 58 35 90.5t83 32.5q20 0 39.5 -6t40.5 -16q15 -6 27.5 -10t21.5 -4
q14 0 21.5 10t6.5 26h84q0 -32 -12.5 -60.5t-36 -45.5t-55.5 -17zM506 921q-38 0 -57 19.5t-19 52.5q0 29 19 50.5t57 21.5q37 0 56 -19.5t19 -52.5q0 -29 -19 -50.5t-56 -21.5zM286 921q-37 0 -56 19.5t-19 52.5q0 29 19 50.5t56 21.5q38 0 57 -19.5t19 -52.5
q0 -29 -19 -50.5t-57 -21.5z" />
    <glyph glyph-name="uni1E4F" unicode="&#x1e4f;" horiz-adv-x="624" 
d="M313 -10q-79 0 -141 35.5t-98 97.5t-36 141t36 141t98 97.5t141 35.5q78 0 140 -35.5t97.5 -97.5t35.5 -141t-35.5 -141t-97.5 -97.5t-140 -35.5zM313 99q43 0 76.5 22t53 59t18.5 84q1 48 -18.5 85t-53 58.5t-76.5 21.5t-77.5 -21.5t-53.5 -59t-19 -84.5t19 -84
t53.5 -59t77.5 -22zM417 803q-36 0 -55 18t-19 51q0 31 20 50.5t54 19.5q35 0 54.5 -18t19.5 -52q0 -30 -20 -49.5t-54 -19.5zM205 803q-35 0 -54.5 18t-19.5 51q0 31 20 50.5t54 19.5q36 0 55 -18t19 -52q0 -30 -19.5 -49.5t-54.5 -19.5zM368 615q-19 0 -34 7t-32 21
q-19 16 -29 22t-18 6q-13 0 -23.5 -13.5t-13.5 -41.5l-76 11q2 52 32 89t80 37q19 0 34 -7t32 -20q18 -14 28 -21t19 -7q14 0 23.5 13.5t13.5 40.5l75 -11q0 -33 -14.5 -62.5t-38.5 -46.5t-58 -17z" />
    <glyph glyph-name="uni1E50" unicode="&#x1e50;" horiz-adv-x="793" 
d="M396 -10q-75 0 -139 27t-111.5 75.5t-73.5 114.5t-26 144t26 144t73.5 114.5t111.5 75.5t139 27q76 0 140 -27t111 -76t73 -114.5t26 -143.5q0 -77 -26 -143t-73 -115t-111 -76t-140 -27zM396 114q48 0 87.5 17.5t68.5 50t45.5 75.5t16.5 94t-16.5 94t-45.5 75.5
t-68.5 50t-87.5 17.5q-47 0 -87 -17.5t-69 -49.5t-45 -75t-16 -95q0 -51 16 -94.5t45 -75.5t69 -49.5t87 -17.5zM225 788v84h341v-84h-341zM480 916l-211 77l52 99l192 -113z" />
    <glyph glyph-name="uni1E51" unicode="&#x1e51;" horiz-adv-x="624" 
d="M313 -10q-79 0 -141 35.5t-98 97.5t-36 141t36 141t98 97.5t141 35.5q78 0 140 -35.5t97.5 -97.5t35.5 -141t-35.5 -141t-97.5 -97.5t-140 -35.5zM313 99q43 0 76.5 22t53 59t18.5 84q1 48 -18.5 85t-53 58.5t-76.5 21.5t-77.5 -21.5t-53.5 -59t-19 -84.5t19 -84
t53.5 -59t77.5 -22zM325 757l-120 126l85 63l93 -150zM161 631v84h302v-84h-302z" />
    <glyph glyph-name="uni1E52" unicode="&#x1e52;" horiz-adv-x="793" 
d="M396 -10q-75 0 -139 27t-111.5 75.5t-73.5 114.5t-26 144t26 144t73.5 114.5t111.5 75.5t139 27q76 0 140 -27t111 -76t73 -114.5t26 -143.5q0 -77 -26 -143t-73 -115t-111 -76t-140 -27zM396 114q48 0 87.5 17.5t68.5 50t45.5 75.5t16.5 94t-16.5 94t-45.5 75.5
t-68.5 50t-87.5 17.5q-47 0 -87 -17.5t-69 -49.5t-45 -75t-16 -95q0 -51 16 -94.5t45 -75.5t69 -49.5t87 -17.5zM225 788v84h341v-84h-341zM321 916l-31 63l192 113l50 -99z" />
    <glyph glyph-name="uni1E53" unicode="&#x1e53;" horiz-adv-x="624" 
d="M313 -10q-79 0 -141 35.5t-98 97.5t-36 141t36 141t98 97.5t141 35.5q78 0 140 -35.5t97.5 -97.5t35.5 -141t-35.5 -141t-97.5 -97.5t-140 -35.5zM313 99q43 0 76.5 22t53 59t18.5 84q1 48 -18.5 85t-53 58.5t-76.5 21.5t-77.5 -21.5t-53.5 -59t-19 -84.5t19 -84
t53.5 -59t77.5 -22zM161 631v84h302v-84h-302zM314 757l-57 39l92 150l86 -63z" />
    <glyph glyph-name="uni1E5A" unicode="&#x1e5a;" horiz-adv-x="697" 
d="M94 0v700h304q63 0 115 -29.5t82.5 -80t30.5 -113.5q0 -60 -30.5 -110.5t-82 -80t-115.5 -29.5h-177v-257h-127zM500 0l-178 316l134 25l198 -342zM221 370h178q29 0 50.5 13.5t33.5 37.5t12 53q0 33 -15 57t-42 38t-62 14h-155v-213zM349 -212q-38 0 -58.5 18.5
t-20.5 53.5q0 32 21 52t58 20q38 0 58.5 -19t20.5 -53q0 -32 -21 -52t-58 -20z" />
    <glyph glyph-name="uni1E5B" unicode="&#x1e5b;" horiz-adv-x="421" 
d="M72 0v527h121l2 -168l-17 38q11 40 38 72t62.5 50.5t74.5 18.5q17 0 32.5 -3t25.5 -7l-33 -135q-11 6 -27 10t-32 4q-25 0 -47.5 -9.5t-39.5 -26.5t-26.5 -39.5t-9.5 -50.5v-281h-124zM132 -212q-38 0 -58.5 18.5t-20.5 53.5q0 32 21 52t58 20q38 0 58.5 -19t20.5 -53
q0 -32 -21 -52t-58 -20z" />
    <glyph glyph-name="uni1E5E" unicode="&#x1e5e;" horiz-adv-x="697" 
d="M94 0v700h304q63 0 115 -29.5t82.5 -80t30.5 -113.5q0 -60 -30.5 -110.5t-82 -80t-115.5 -29.5h-177v-257h-127zM500 0l-178 316l134 25l198 -342zM221 370h178q29 0 50.5 13.5t33.5 37.5t12 53q0 33 -15 57t-42 38t-62 14h-155v-213zM204 -185v89h289v-89h-289z" />
    <glyph glyph-name="uni1E5F" unicode="&#x1e5f;" horiz-adv-x="421" 
d="M72 0v527h121l2 -168l-17 38q11 40 38 72t62.5 50.5t74.5 18.5q17 0 32.5 -3t25.5 -7l-33 -135q-11 6 -27 10t-32 4q-25 0 -47.5 -9.5t-39.5 -26.5t-26.5 -39.5t-9.5 -50.5v-281h-124zM-13 -185v89h289v-89h-289z" />
    <glyph glyph-name="uni1E60" unicode="&#x1e60;" horiz-adv-x="627" 
d="M316 -10q-61 0 -112 15.5t-92 46.5t-73 75l85 96q49 -68 96 -94t106 -26q34 0 62 10.5t44 29t16 42.5q0 17 -6.5 31.5t-19.5 26t-32 21.5t-43 17t-53 13q-55 11 -96 29.5t-69 46t-41 62t-13 78.5t19.5 81t53.5 64t79 42t97 15q59 0 105.5 -14t82 -41.5t58.5 -66.5
l-86 -85q-20 31 -45 51.5t-54 31t-61 10.5q-36 0 -62.5 -10t-41.5 -28.5t-15 -44.5q0 -20 9 -35.5t25.5 -27.5t42.5 -21t59 -16q55 -11 99 -29.5t75 -44t47 -58t16 -72.5q0 -69 -32.5 -118.5t-91.5 -76t-138 -26.5zM332 758q-39 0 -58.5 19.5t-19.5 51.5q0 29 19.5 50.5
t58.5 21.5t58.5 -19.5t19.5 -52.5q0 -28 -19.5 -49.5t-58.5 -21.5z" />
    <glyph glyph-name="uni1E61" unicode="&#x1e61;" horiz-adv-x="485" 
d="M248 -10q-70 0 -125.5 23.5t-90.5 67.5l80 69q30 -34 67 -49t78 -15q17 0 30.5 4t23.5 12t15.5 18.5t5.5 23.5q0 24 -18 38q-10 7 -31.5 15t-55.5 16q-54 14 -90 32.5t-56 41.5q-17 19 -25.5 43t-8.5 52q0 35 15.5 63.5t42.5 49.5t63 32t75 11q40 0 77.5 -10t70 -28.5
t55.5 -44.5l-68 -75q-19 18 -41.5 32t-45.5 22.5t-43 8.5q-19 0 -34 -3.5t-25 -10.5t-15.5 -17.5t-5.5 -24.5q1 -12 6.5 -22.5t15.5 -17.5q11 -7 33 -16t57 -17q49 -13 82 -29t52 -37q19 -18 27 -42t8 -53q0 -47 -26.5 -84t-72 -58t-102.5 -21zM243 639q-37 0 -57.5 18.5
t-20.5 52.5q0 32 21 52t57 20q37 0 57.5 -19t20.5 -53q0 -31 -21 -51t-57 -20z" />
    <glyph glyph-name="uni1E62" unicode="&#x1e62;" horiz-adv-x="627" 
d="M316 -10q-61 0 -112 15.5t-92 46.5t-73 75l85 96q49 -68 96 -94t106 -26q34 0 62 10.5t44 29t16 42.5q0 17 -6.5 31.5t-19.5 26t-32 21.5t-43 17t-53 13q-55 11 -96 29.5t-69 46t-41 62t-13 78.5t19.5 81t53.5 64t79 42t97 15q59 0 105.5 -14t82 -41.5t58.5 -66.5
l-86 -85q-20 31 -45 51.5t-54 31t-61 10.5q-36 0 -62.5 -10t-41.5 -28.5t-15 -44.5q0 -20 9 -35.5t25.5 -27.5t42.5 -21t59 -16q55 -11 99 -29.5t75 -44t47 -58t16 -72.5q0 -69 -32.5 -118.5t-91.5 -76t-138 -26.5zM334 -212q-38 0 -58.5 18.5t-20.5 53.5q0 32 21 52t58 20
q38 0 58.5 -19t20.5 -53q0 -32 -21 -52t-58 -20z" />
    <glyph glyph-name="uni1E63" unicode="&#x1e63;" horiz-adv-x="485" 
d="M248 -10q-70 0 -125.5 23.5t-90.5 67.5l80 69q30 -34 67 -49t78 -15q17 0 30.5 4t23.5 12t15.5 18.5t5.5 23.5q0 24 -18 38q-10 7 -31.5 15t-55.5 16q-54 14 -90 32.5t-56 41.5q-17 19 -25.5 43t-8.5 52q0 35 15.5 63.5t42.5 49.5t63 32t75 11q40 0 77.5 -10t70 -28.5
t55.5 -44.5l-68 -75q-19 18 -41.5 32t-45.5 22.5t-43 8.5q-19 0 -34 -3.5t-25 -10.5t-15.5 -17.5t-5.5 -24.5q1 -12 6.5 -22.5t15.5 -17.5q11 -7 33 -16t57 -17q49 -13 82 -29t52 -37q19 -18 27 -42t8 -53q0 -47 -26.5 -84t-72 -58t-102.5 -21zM250 -212q-38 0 -58.5 18.5
t-20.5 53.5q0 32 21 52t58 20q38 0 58.5 -19t20.5 -53q0 -32 -21 -52t-58 -20z" />
    <glyph glyph-name="uni1E64" unicode="&#x1e64;" horiz-adv-x="627" 
d="M316 -10q-61 0 -112 15.5t-92 46.5t-73 75l85 96q49 -68 96 -94t106 -26q34 0 62 10.5t44 29t16 42.5q0 17 -6.5 31.5t-19.5 26t-32 21.5t-43 17t-53 13q-55 11 -96 29.5t-69 46t-41 62t-13 78.5t19.5 81t53.5 64t79 42t97 15q59 0 105.5 -14t82 -41.5t58.5 -66.5
l-86 -85q-20 31 -45 51.5t-54 31t-61 10.5q-36 0 -62.5 -10t-41.5 -28.5t-15 -44.5q0 -20 9 -35.5t25.5 -27.5t42.5 -21t59 -16q55 -11 99 -29.5t75 -44t47 -58t16 -72.5q0 -69 -32.5 -118.5t-91.5 -76t-138 -26.5zM408 751l-58 39l93 150l85 -63zM244 757q-36 0 -56 18.5
t-20 50.5q0 31 20.5 50.5t55.5 19.5q36 0 55.5 -18.5t19.5 -51.5q0 -30 -20 -49.5t-55 -19.5z" />
    <glyph glyph-name="uni1E65" unicode="&#x1e65;" horiz-adv-x="485" 
d="M248 -10q-70 0 -125.5 23.5t-90.5 67.5l80 69q30 -34 67 -49t78 -15q17 0 30.5 4t23.5 12t15.5 18.5t5.5 23.5q0 24 -18 38q-10 7 -31.5 15t-55.5 16q-54 14 -90 32.5t-56 41.5q-17 19 -25.5 43t-8.5 52q0 35 15.5 63.5t42.5 49.5t63 32t75 11q40 0 77.5 -10t70 -28.5
t55.5 -44.5l-68 -75q-19 18 -41.5 32t-45.5 22.5t-43 8.5q-19 0 -34 -3.5t-25 -10.5t-15.5 -17.5t-5.5 -24.5q1 -12 6.5 -22.5t15.5 -17.5q11 -7 33 -16t57 -17q49 -13 82 -29t52 -37q19 -18 27 -42t8 -53q0 -47 -26.5 -84t-72 -58t-102.5 -21zM319 624l-58 39l93 149
l85 -62zM155 630q-36 0 -56 18t-20 51q0 31 20.5 50t55.5 19q36 0 55.5 -18t19.5 -51q0 -30 -20 -49.5t-55 -19.5z" />
    <glyph glyph-name="uni1E66" unicode="&#x1e66;" horiz-adv-x="627" 
d="M316 -10q-61 0 -112 15.5t-92 46.5t-73 75l85 96q49 -68 96 -94t106 -26q34 0 62 10.5t44 29t16 42.5q0 17 -6.5 31.5t-19.5 26t-32 21.5t-43 17t-53 13q-55 11 -96 29.5t-69 46t-41 62t-13 78.5t19.5 81t53.5 64t79 42t97 15q59 0 105.5 -14t82 -41.5t58.5 -66.5
l-86 -85q-20 31 -45 51.5t-54 31t-61 10.5q-36 0 -62.5 -10t-41.5 -28.5t-15 -44.5q0 -20 9 -35.5t25.5 -27.5t42.5 -21t59 -16q55 -11 99 -29.5t75 -44t47 -58t16 -72.5q0 -69 -32.5 -118.5t-91.5 -76t-138 -26.5zM287 756l-125 105l42 41l143 -66h-30l143 66l42 -41
l-125 -105h-90zM332 922q-39 0 -58.5 19.5t-19.5 51.5q0 29 19.5 50.5t58.5 21.5t58.5 -19.5t19.5 -52.5q0 -28 -19.5 -49.5t-58.5 -21.5z" />
    <glyph glyph-name="uni1E67" unicode="&#x1e67;" horiz-adv-x="485" 
d="M248 -10q-70 0 -125.5 23.5t-90.5 67.5l80 69q30 -34 67 -49t78 -15q17 0 30.5 4t23.5 12t15.5 18.5t5.5 23.5q0 24 -18 38q-10 7 -31.5 15t-55.5 16q-54 14 -90 32.5t-56 41.5q-17 19 -25.5 43t-8.5 52q0 35 15.5 63.5t42.5 49.5t63 32t75 11q40 0 77.5 -10t70 -28.5
t55.5 -44.5l-68 -75q-19 18 -41.5 32t-45.5 22.5t-43 8.5q-19 0 -34 -3.5t-25 -10.5t-15.5 -17.5t-5.5 -24.5q1 -12 6.5 -22.5t15.5 -17.5q11 -7 33 -16t57 -17q49 -13 82 -29t52 -37q19 -18 27 -42t8 -53q0 -47 -26.5 -84t-72 -58t-102.5 -21zM198 605l-117 119l45 39
l132 -78h-30l132 78l45 -39l-117 -119h-90zM243 780q-37 0 -57.5 18.5t-20.5 52.5q0 31 21 51t57 20q37 0 57.5 -18.5t20.5 -52.5q0 -32 -21 -51.5t-57 -19.5z" />
    <glyph glyph-name="uni1E68" unicode="&#x1e68;" horiz-adv-x="627" 
d="M316 -10q-61 0 -112 15.5t-92 46.5t-73 75l85 96q49 -68 96 -94t106 -26q34 0 62 10.5t44 29t16 42.5q0 17 -6.5 31.5t-19.5 26t-32 21.5t-43 17t-53 13q-55 11 -96 29.5t-69 46t-41 62t-13 78.5t19.5 81t53.5 64t79 42t97 15q59 0 105.5 -14t82 -41.5t58.5 -66.5
l-86 -85q-20 31 -45 51.5t-54 31t-61 10.5q-36 0 -62.5 -10t-41.5 -28.5t-15 -44.5q0 -20 9 -35.5t25.5 -27.5t42.5 -21t59 -16q55 -11 99 -29.5t75 -44t47 -58t16 -72.5q0 -69 -32.5 -118.5t-91.5 -76t-138 -26.5zM334 -212q-38 0 -58.5 18.5t-20.5 53.5q0 32 21 52t58 20
q38 0 58.5 -19t20.5 -53q0 -32 -21 -52t-58 -20zM332 758q-39 0 -58.5 19.5t-19.5 51.5q0 29 19.5 50.5t58.5 21.5t58.5 -19.5t19.5 -52.5q0 -28 -19.5 -49.5t-58.5 -21.5z" />
    <glyph glyph-name="uni1E69" unicode="&#x1e69;" horiz-adv-x="485" 
d="M248 -10q-70 0 -125.5 23.5t-90.5 67.5l80 69q30 -34 67 -49t78 -15q17 0 30.5 4t23.5 12t15.5 18.5t5.5 23.5q0 24 -18 38q-10 7 -31.5 15t-55.5 16q-54 14 -90 32.5t-56 41.5q-17 19 -25.5 43t-8.5 52q0 35 15.5 63.5t42.5 49.5t63 32t75 11q40 0 77.5 -10t70 -28.5
t55.5 -44.5l-68 -75q-19 18 -41.5 32t-45.5 22.5t-43 8.5q-19 0 -34 -3.5t-25 -10.5t-15.5 -17.5t-5.5 -24.5q1 -12 6.5 -22.5t15.5 -17.5q11 -7 33 -16t57 -17q49 -13 82 -29t52 -37q19 -18 27 -42t8 -53q0 -47 -26.5 -84t-72 -58t-102.5 -21zM250 -212q-38 0 -58.5 18.5
t-20.5 53.5q0 32 21 52t58 20q38 0 58.5 -19t20.5 -53q0 -32 -21 -52t-58 -20zM243 639q-37 0 -57.5 18.5t-20.5 52.5q0 32 21 52t57 20q37 0 57.5 -19t20.5 -53q0 -31 -21 -51t-57 -20z" />
    <glyph glyph-name="uni1E6C" unicode="&#x1e6c;" horiz-adv-x="604" 
d="M234 0v580h-200v120h536v-120h-206v-580h-130zM302 -212q-38 0 -58.5 18.5t-20.5 53.5q0 32 21 52t58 20q38 0 58.5 -19t20.5 -53q0 -32 -21 -52t-58 -20z" />
    <glyph glyph-name="uni1E6D" unicode="&#x1e6d;" horiz-adv-x="389" 
d="M129 0v661h123v-661h-123zM25 413v114h342v-114h-342zM195 -212q-38 0 -58.5 18.5t-20.5 53.5q0 32 21 52t58 20q38 0 58.5 -19t20.5 -53q0 -32 -21 -52t-58 -20z" />
    <glyph glyph-name="uni1E6E" unicode="&#x1e6e;" horiz-adv-x="604" 
d="M234 0v580h-200v120h536v-120h-206v-580h-130zM157 -185v89h289v-89h-289z" />
    <glyph glyph-name="uni1E6F" unicode="&#x1e6f;" horiz-adv-x="389" 
d="M129 0v661h123v-661h-123zM25 413v114h342v-114h-342zM50 -185v89h289v-89h-289z" />
    <glyph glyph-name="uni1E78" unicode="&#x1e78;" horiz-adv-x="749" 
d="M374 -6q-83 0 -148 35.5t-102.5 98t-37.5 141.5v432h131v-423q0 -47 21.5 -83.5t57.5 -58.5t78 -22q46 0 83 22t58.5 58.5t21.5 83.5v423h126v-432q0 -79 -37.5 -141.5t-102.5 -98t-149 -35.5zM449 768q-22 0 -44.5 7t-44.5 16q-17 7 -29 11t-22 4q-14 0 -22 -9.5
t-8 -28.5h-85q0 58 35 90.5t83 32.5q20 0 39.5 -6t40.5 -16q15 -6 27.5 -10t21.5 -4q14 0 21.5 10t6.5 26h84q0 -32 -12.5 -60.5t-36 -45.5t-55.5 -17zM299 916l-31 63l192 113l50 -99z" />
    <glyph glyph-name="uni1E79" unicode="&#x1e79;" horiz-adv-x="618" 
d="M255 -10q-57 0 -99 25.5t-64 73t-22 113.5v325h123v-299q0 -42 13 -71.5t38 -45.5t60 -16q26 0 47.5 8.5t37.5 24t25 37t9 46.5v316h123v-527h-120l-2 110l22 12q-12 -38 -40.5 -67.5t-67.5 -47t-83 -17.5zM367 615q-19 0 -34 7t-33 21q-18 16 -28 22t-18 6
q-13 0 -23.5 -13.5t-14.5 -41.5l-75 11q1 52 31 89t81 37q19 0 33.5 -7t32.5 -20q18 -14 27.5 -21t18.5 -7q14 0 24 13.5t13 40.5l76 -11q-1 -33 -15 -62.5t-38.5 -46.5t-57.5 -17zM321 773l-58 39l93 150l85 -63z" />
    <glyph glyph-name="uni1E7A" unicode="&#x1e7a;" horiz-adv-x="749" 
d="M374 -6q-83 0 -148 35.5t-102.5 98t-37.5 141.5v432h131v-423q0 -47 21.5 -83.5t57.5 -58.5t78 -22q46 0 83 22t58.5 58.5t21.5 83.5v423h126v-432q0 -79 -37.5 -141.5t-102.5 -98t-149 -35.5zM203 788v84h341v-84h-341zM484 921q-38 0 -57 19.5t-19 52.5q0 29 19 50.5
t57 21.5q37 0 56 -19.5t19 -52.5q0 -29 -19 -50.5t-56 -21.5zM264 921q-37 0 -56 19.5t-19 52.5q0 29 19 50.5t56 21.5q38 0 57 -19.5t19 -52.5q0 -29 -19 -50.5t-57 -21.5z" />
    <glyph glyph-name="uni1E7B" unicode="&#x1e7b;" horiz-adv-x="618" 
d="M255 -10q-57 0 -99 25.5t-64 73t-22 113.5v325h123v-299q0 -42 13 -71.5t38 -45.5t60 -16q26 0 47.5 8.5t37.5 24t25 37t9 46.5v316h123v-527h-120l-2 110l22 12q-12 -38 -40.5 -67.5t-67.5 -47t-83 -17.5zM159 641v84h302v-84h-302zM416 789q-36 0 -55.5 19t-19.5 53
q0 32 20 52.5t55 20.5q36 0 56 -19t20 -54q0 -32 -20.5 -52t-55.5 -20zM202 789q-36 0 -55.5 19t-19.5 53q0 32 20 52.5t55 20.5q36 0 55.5 -19t19.5 -54q0 -32 -20 -52t-55 -20z" />
    <glyph glyph-name="Wgrave" unicode="&#x1e80;" horiz-adv-x="995" 
d="M235 0l-218 700h136l124 -413q6 -19 11 -42t9 -45.5t7 -41.5t6 -32l-27 1q12 47 19 76t12.5 48.5t11.5 36.5l118 302h111l115 -302q10 -28 18 -53.5t13.5 -50t10.5 -50.5l-24 -5q4 24 6 39t4 27t4 23.5t6.5 28t11.5 42.5l123 411h135l-219 -700h-94l-178 426l12 -4
l-169 -422h-95zM581 752l-211 77l52 99l192 -113z" />
    <glyph glyph-name="wgrave" unicode="&#x1e81;" horiz-adv-x="812" 
d="M196 0l-177 527l126 1l118 -376l-22 2l128 294h74l131 -294l-26 -3l119 376h126l-178 -527h-88l-135 316l19 -2l-128 -314h-87zM459 600l-185 100l68 90l156 -131z" />
    <glyph glyph-name="Wacute" unicode="&#x1e82;" horiz-adv-x="995" 
d="M235 0l-218 700h136l124 -413q6 -19 11 -42t9 -45.5t7 -41.5t6 -32l-27 1q12 47 19 76t12.5 48.5t11.5 36.5l118 302h111l115 -302q10 -28 18 -53.5t13.5 -50t10.5 -50.5l-24 -5q4 24 6 39t4 27t4 23.5t6.5 28t11.5 42.5l123 411h135l-219 -700h-94l-178 426l12 -4
l-169 -422h-95zM422 752l-31 63l192 113l50 -99z" />
    <glyph glyph-name="wacute" unicode="&#x1e83;" horiz-adv-x="812" 
d="M196 0l-177 527l126 1l118 -376l-22 2l128 294h74l131 -294l-26 -3l119 376h126l-178 -527h-88l-135 316l19 -2l-128 -314h-87zM333 600l-39 59l156 130l68 -89z" />
    <glyph glyph-name="Wdieresis" unicode="&#x1e84;" horiz-adv-x="995" 
d="M235 0l-218 700h136l124 -413q6 -19 11 -42t9 -45.5t7 -41.5t6 -32l-27 1q12 47 19 76t12.5 48.5t11.5 36.5l118 302h111l115 -302q10 -28 18 -53.5t13.5 -50t10.5 -50.5l-24 -5q4 24 6 39t4 27t4 23.5t6.5 28t11.5 42.5l123 411h135l-219 -700h-94l-178 426l12 -4
l-169 -422h-95zM607 757q-38 0 -57 19.5t-19 52.5q0 29 19 50.5t57 21.5q37 0 56 -19.5t19 -52.5q0 -29 -19 -50.5t-56 -21.5zM387 757q-37 0 -56 19.5t-19 52.5q0 29 19 50.5t56 21.5q38 0 57 -19.5t19 -52.5q0 -29 -19 -50.5t-57 -21.5z" />
    <glyph glyph-name="wdieresis" unicode="&#x1e85;" horiz-adv-x="812" 
d="M196 0l-177 527l126 1l118 -376l-22 2l128 294h74l131 -294l-26 -3l119 376h126l-178 -527h-88l-135 316l19 -2l-128 -314h-87zM513 638q-36 0 -55.5 19t-19.5 53q0 32 20 52.5t55 20.5q36 0 56 -19t20 -54q0 -32 -20.5 -52t-55.5 -20zM299 638q-36 0 -55.5 19t-19.5 53
q0 32 20 52.5t55 20.5q36 0 55.5 -19t19.5 -54q0 -32 -20 -52t-55 -20z" />
    <glyph glyph-name="uni1E8E" unicode="&#x1e8e;" horiz-adv-x="670" 
d="M280 0v349l7 -49l-283 400h152l216 -310l-47 3l195 307h146l-271 -411l15 68v-357h-130zM335 758q-39 0 -58.5 19.5t-19.5 51.5q0 29 19.5 50.5t58.5 21.5t58.5 -19.5t19.5 -52.5q0 -28 -19.5 -49.5t-58.5 -21.5z" />
    <glyph glyph-name="uni1E8F" unicode="&#x1e8f;" horiz-adv-x="595" 
d="M152 -230l112 259l1 -82l-260 580h142l145 -344q7 -13 14 -34.5t12 -42.5l-25 -8q7 19 15 40.5t15 44.5l124 344h143l-220 -527l-90 -230h-128zM298 639q-37 0 -57.5 18.5t-20.5 52.5q0 32 21 52t57 20q37 0 57.5 -19t20.5 -53q0 -31 -21 -51t-57 -20z" />
    <glyph glyph-name="uni1E92" unicode="&#x1e92;" horiz-adv-x="668" 
d="M60 0v91l391 522l31 -35h-396v122h515v-90l-389 -523l-32 33h432v-120h-552zM334 -212q-38 0 -58.5 18.5t-20.5 53.5q0 32 21 52t58 20q38 0 58.5 -19t20.5 -53q0 -32 -21 -52t-58 -20z" />
    <glyph glyph-name="uni1E93" unicode="&#x1e93;" horiz-adv-x="507" 
d="M50 0v88l275 362v-26h-275v103h403v-88l-267 -355l-4 19h278v-103h-410zM254 -212q-38 0 -58.5 18.5t-20.5 53.5q0 32 21 52t58 20q38 0 58.5 -19t20.5 -53q0 -32 -21 -52t-58 -20z" />
    <glyph glyph-name="uni1E97" unicode="&#x1e97;" horiz-adv-x="389" 
d="M129 0v661h123v-661h-123zM25 413v114h342v-114h-342zM301 723q-36 0 -55.5 19t-19.5 53q0 32 20 52.5t55 20.5q36 0 56 -19t20 -54q0 -32 -20.5 -52t-55.5 -20zM87 723q-36 0 -55.5 19t-19.5 53q0 32 20 52.5t55 20.5q36 0 55.5 -19t19.5 -54q0 -32 -20 -52t-55 -20z
" />
    <glyph glyph-name="uni1E9E" unicode="&#x1e9e;" horiz-adv-x="780" 
d="M503 -10q-41 0 -79.5 11t-70 30t-51.5 44l75 90q25 -29 58 -46.5t63 -17.5q46 0 73 20.5t27 55.5q0 22 -12 37.5t-39.5 33t-75.5 43.5q-46 25 -73 48.5t-39 51t-12 63.5q0 37 15 68.5t43 54.5t65 37t80 17l52 -38q-32 12 -81 19.5t-91 7.5q-47 1 -84.5 -18t-64 -55
t-41 -87.5t-14.5 -116.5l-2 -342h-130l1 349q1 113 41 197.5t113 131.5t171 47q63 0 123 -11t112 -33l4 -89q-60 -9 -100.5 -25.5t-61.5 -38.5t-21 -48q0 -19 10.5 -36t32 -31.5t53.5 -30.5q51 -23 86 -47t53.5 -58.5t18.5 -90.5q0 -54 -31.5 -98.5t-82.5 -71.5t-113 -27z
" />
    <glyph glyph-name="uni1EA0" unicode="&#x1ea0;" horiz-adv-x="698" 
d="M16 0l273 700h122l271 -700h-135l-150 398q-5 12 -13.5 38t-18.5 56.5t-18 57t-12 38.5l25 1q-6 -20 -14 -45t-17 -52t-17.5 -52t-15.5 -45l-150 -395h-130zM140 160l45 113h319l48 -113h-412zM349 -212q-38 0 -58.5 18.5t-20.5 53.5q0 32 21 52t58 20q38 0 58.5 -19
t20.5 -53q0 -32 -21 -52t-58 -20z" />
    <glyph glyph-name="uni1EA1" unicode="&#x1ea1;" horiz-adv-x="642" 
d="M271 -10q-65 0 -118 36t-85 98t-32 141t32 141t87 97t124 35q40 0 73 -11.5t58 -32.5t41.5 -48t22.5 -58l-27 7v132h124v-527h-125v126l29 5q-7 -27 -25.5 -52.5t-46 -45t-61 -31.5t-71.5 -12zM305 99q43 0 76 21t51.5 58.5t18.5 86.5q0 48 -18.5 85t-51.5 58t-76 21
t-75.5 -21t-50.5 -58t-18 -85q0 -49 18 -86.5t50.5 -58.5t75.5 -21zM322 -212q-38 0 -58.5 18.5t-20.5 53.5q0 32 21 52t58 20q38 0 58.5 -19t20.5 -53q0 -32 -21 -52t-58 -20z" />
    <glyph glyph-name="uni1EA2" unicode="&#x1ea2;" horiz-adv-x="698" 
d="M16 0l273 700h122l271 -700h-135l-150 398q-5 12 -13.5 38t-18.5 56.5t-18 57t-12 38.5l25 1q-6 -20 -14 -45t-17 -52t-17.5 -52t-15.5 -45l-150 -395h-130zM140 160l45 113h319l48 -113h-412zM325 754q-7 10 -11.5 19.5t-4.5 19.5q0 11 5.5 22t22.5 23q16 10 23 16.5
t7 14.5q0 9 -8.5 13t-21.5 4q-18 0 -37.5 -5.5t-38.5 -13.5l-19 70q21 12 48 19t53 7q54 0 83 -23t29 -59q0 -27 -12.5 -42.5t-26.5 -23.5q-18 -9 -27.5 -16.5t-9.5 -17.5q0 -4 1 -7l2 -6z" />
    <glyph glyph-name="uni1EA3" unicode="&#x1ea3;" horiz-adv-x="642" 
d="M271 -10q-65 0 -118 36t-85 98t-32 141t32 141t87 97t124 35q40 0 73 -11.5t58 -32.5t41.5 -48t22.5 -58l-27 7v132h124v-527h-125v126l29 5q-7 -27 -25.5 -52.5t-46 -45t-61 -31.5t-71.5 -12zM305 99q43 0 76 21t51.5 58.5t18.5 86.5q0 48 -18.5 85t-51.5 58t-76 21
t-75.5 -21t-50.5 -58t-18 -85q0 -49 18 -86.5t50.5 -58.5t75.5 -21zM298 592q-7 10 -11.5 20t-4.5 20t5.5 21.5t22.5 22.5q16 11 23 17t7 14q0 9 -8.5 13.5t-21.5 4.5q-18 0 -37.5 -5.5t-38.5 -14.5l-19 71q21 12 48 19t53 7q54 0 83 -23t29 -59q0 -28 -12.5 -43t-26.5 -24
q-18 -9 -27.5 -16.5t-9.5 -17.5q0 -3 1 -6.5t2 -6.5z" />
    <glyph glyph-name="uni1EA4" unicode="&#x1ea4;" horiz-adv-x="698" 
d="M16 0l273 700h122l271 -700h-135l-150 398q-5 12 -13.5 38t-18.5 56.5t-18 57t-12 38.5l25 1q-6 -20 -14 -45t-17 -52t-17.5 -52t-15.5 -45l-150 -395h-130zM140 160l45 113h319l48 -113h-412zM222 753l-38 43l126 99h78l126 -99l-38 -43l-142 64h30zM517 869l-56 40
l87 152l92 -65z" />
    <glyph glyph-name="uni1EA5" unicode="&#x1ea5;" horiz-adv-x="642" 
d="M271 -10q-65 0 -118 36t-85 98t-32 141t32 141t87 97t124 35q40 0 73 -11.5t58 -32.5t41.5 -48t22.5 -58l-27 7v132h124v-527h-125v126l29 5q-7 -27 -25.5 -52.5t-46 -45t-61 -31.5t-71.5 -12zM305 99q43 0 76 21t51.5 58.5t18.5 86.5q0 48 -18.5 85t-51.5 58t-76 21
t-75.5 -21t-50.5 -58t-18 -85q0 -49 18 -86.5t50.5 -58.5t75.5 -21zM197 605l-41 40l121 111h89l121 -111l-41 -40l-139 71h30zM498 748l-56 39l86 153l92 -66z" />
    <glyph glyph-name="uni1EA6" unicode="&#x1ea6;" horiz-adv-x="698" 
d="M16 0l273 700h122l271 -700h-135l-150 398q-5 12 -13.5 38t-18.5 56.5t-18 57t-12 38.5l25 1q-6 -20 -14 -45t-17 -52t-17.5 -52t-15.5 -45l-150 -395h-130zM140 160l45 113h319l48 -113h-412zM221 753l-37 43l125 99h79l125 -99l-37 -43l-142 64h29zM515 870l-125 127
l91 66l87 -152z" />
    <glyph glyph-name="uni1EA7" unicode="&#x1ea7;" horiz-adv-x="642" 
d="M271 -10q-65 0 -118 36t-85 98t-32 141t32 141t87 97t124 35q40 0 73 -11.5t58 -32.5t41.5 -48t22.5 -58l-27 7v132h124v-527h-125v126l29 5q-7 -27 -25.5 -52.5t-46 -45t-61 -31.5t-71.5 -12zM305 99q43 0 76 21t51.5 58.5t18.5 86.5q0 48 -18.5 85t-51.5 58t-76 21
t-75.5 -21t-50.5 -58t-18 -85q0 -49 18 -86.5t50.5 -58.5t75.5 -21zM197 605l-41 40l121 111h89l121 -111l-41 -40l-140 71h30zM480 746l-125 127l91 67l87 -153z" />
    <glyph glyph-name="uni1EA8" unicode="&#x1ea8;" horiz-adv-x="698" 
d="M16 0l273 700h122l271 -700h-135l-150 398q-5 12 -13.5 38t-18.5 56.5t-18 57t-12 38.5l25 1q-6 -20 -14 -45t-17 -52t-17.5 -52t-15.5 -45l-150 -395h-130zM140 160l45 113h319l48 -113h-412zM221 753l-37 43l125 99h79l125 -99l-37 -43l-142 64h29zM489 868
q-7 8 -11.5 17.5t-4.5 18.5q0 10 4.5 19t22.5 20q13 9 21 15.5t8 11.5q0 9 -9 13.5t-22 4.5q-17 0 -37 -5.5t-38 -13.5l-19 71q21 12 47.5 18.5t51.5 6.5q55 0 84.5 -23.5t29.5 -58.5q0 -24 -13.5 -37.5t-27.5 -22.5q-18 -10 -26.5 -17.5t-8.5 -14.5q0 -3 0.5 -5t1.5 -5z
" />
    <glyph glyph-name="uni1EA9" unicode="&#x1ea9;" horiz-adv-x="642" 
d="M271 -10q-65 0 -118 36t-85 98t-32 141t32 141t87 97t124 35q40 0 73 -11.5t58 -32.5t41.5 -48t22.5 -58l-27 7v132h124v-527h-125v126l29 5q-7 -27 -25.5 -52.5t-46 -45t-61 -31.5t-71.5 -12zM305 99q43 0 76 21t51.5 58.5t18.5 86.5q0 48 -18.5 85t-51.5 58t-76 21
t-75.5 -21t-50.5 -58t-18 -85q0 -49 18 -86.5t50.5 -58.5t75.5 -21zM198 605l-42 40l122 111h89l121 -111l-41 -40l-140 71h30zM470 737q-7 10 -11.5 19.5t-4.5 19.5q0 9 5.5 19.5t21.5 21.5q15 10 22 16.5t7 13.5q0 9 -9 13.5t-22 4.5q-17 0 -37 -4t-38 -15l-19 71
q21 12 47.5 18.5t51.5 6.5q55 0 84.5 -23.5t29.5 -58.5q0 -28 -12.5 -43t-28.5 -23q-17 -8 -26 -15t-9 -17q0 -4 0.5 -6.5t1.5 -5.5z" />
    <glyph glyph-name="uni1EAA" unicode="&#x1eaa;" horiz-adv-x="698" 
d="M16 0l273 700h122l271 -700h-135l-150 398q-5 12 -13.5 38t-18.5 56.5t-18 57t-12 38.5l25 1q-6 -20 -14 -45t-17 -52t-17.5 -52t-15.5 -45l-150 -395h-130zM140 160l45 113h319l48 -113h-412zM221 753l-37 43l125 99h79l125 -99l-37 -43l-142 64h29zM427 943
q-23 0 -43.5 6.5t-38.5 13.5q-18 8 -30 13t-22 5q-15 0 -24.5 -10t-13.5 -27l-76 8q1 47 31 79.5t73 32.5q21 0 38.5 -6.5t36.5 -15.5q14 -6 27.5 -11t23.5 -5q15 0 22 9.5t11 28.5l76 -8q-1 -31 -12 -57t-30.5 -41t-48.5 -15z" />
    <glyph glyph-name="uni1EAB" unicode="&#x1eab;" horiz-adv-x="642" 
d="M271 -10q-65 0 -118 36t-85 98t-32 141t32 141t87 97t124 35q40 0 73 -11.5t58 -32.5t41.5 -48t22.5 -58l-27 7v132h124v-527h-125v126l29 5q-7 -27 -25.5 -52.5t-46 -45t-61 -31.5t-71.5 -12zM305 99q43 0 76 21t51.5 58.5t18.5 86.5q0 48 -18.5 85t-51.5 58t-76 21
t-75.5 -21t-50.5 -58t-18 -85q0 -49 18 -86.5t50.5 -58.5t75.5 -21zM197 605l-42 40l122 111h89l121 -111l-41 -40l-140 71h30zM398 814q-26 0 -45.5 8t-39.5 16q-13 6 -24 10.5t-23 4.5q-13 0 -23.5 -10t-14.5 -27l-75 11q1 45 30 78t70 33q21 0 39.5 -8t37.5 -17
q14 -6 25.5 -10.5t21.5 -4.5q14 0 24 9.5t13 28.5l76 -11q-1 -29 -12.5 -54.5t-31.5 -41t-48 -15.5z" />
    <glyph glyph-name="uni1EAC" unicode="&#x1eac;" horiz-adv-x="698" 
d="M16 0l273 700h122l271 -700h-135l-150 398q-5 12 -13.5 38t-18.5 56.5t-18 57t-12 38.5l25 1q-6 -20 -14 -45t-17 -52t-17.5 -52t-15.5 -45l-150 -395h-130zM140 160l45 113h319l48 -113h-412zM349 -212q-38 0 -58.5 18.5t-20.5 53.5q0 32 21 52t58 20q38 0 58.5 -19
t20.5 -53q0 -32 -21 -52t-58 -20zM222 755l-41 42l128 103h79l128 -103l-41 -42l-141 67h29z" />
    <glyph glyph-name="uni1EAD" unicode="&#x1ead;" horiz-adv-x="642" 
d="M271 -10q-65 0 -118 36t-85 98t-32 141t32 141t87 97t124 35q40 0 73 -11.5t58 -32.5t41.5 -48t22.5 -58l-27 7v132h124v-527h-125v126l29 5q-7 -27 -25.5 -52.5t-46 -45t-61 -31.5t-71.5 -12zM305 99q43 0 76 21t51.5 58.5t18.5 86.5q0 48 -18.5 85t-51.5 58t-76 21
t-75.5 -21t-50.5 -58t-18 -85q0 -49 18 -86.5t50.5 -58.5t75.5 -21zM322 -212q-38 0 -58.5 18.5t-20.5 53.5q0 32 21 52t58 20q38 0 58.5 -19t20.5 -53q0 -32 -21 -52t-58 -20zM197 605l-45 39l125 119h90l125 -119l-45 -39l-140 77h30z" />
    <glyph glyph-name="uni1EAE" unicode="&#x1eae;" horiz-adv-x="698" 
d="M16 0l273 700h122l271 -700h-135l-150 398q-5 12 -13.5 38t-18.5 56.5t-18 57t-12 38.5l25 1q-6 -20 -14 -45t-17 -52t-17.5 -52t-15.5 -45l-150 -395h-130zM140 160l45 113h319l48 -113h-412zM349 749q-64 0 -109.5 36.5t-58.5 100.5l79 12q14 -35 37 -50t52 -15t52 15
t37 50l79 -12q-13 -64 -58.5 -100.5t-109.5 -36.5zM356 886l-53 41l87 152l91 -66z" />
    <glyph glyph-name="uni1EAF" unicode="&#x1eaf;" horiz-adv-x="642" 
d="M271 -10q-65 0 -118 36t-85 98t-32 141t32 141t87 97t124 35q40 0 73 -11.5t58 -32.5t41.5 -48t22.5 -58l-27 7v132h124v-527h-125v126l29 5q-7 -27 -25.5 -52.5t-46 -45t-61 -31.5t-71.5 -12zM305 99q43 0 76 21t51.5 58.5t18.5 86.5q0 48 -18.5 85t-51.5 58t-76 21
t-75.5 -21t-50.5 -58t-18 -85q0 -49 18 -86.5t50.5 -58.5t75.5 -21zM322 591q-66 0 -110 36.5t-58 100.5l83 12q12 -31 34.5 -46.5t50.5 -15.5t50.5 15.5t34.5 46.5l83 -12q-14 -64 -58 -100.5t-110 -36.5zM330 760l-56 39l86 153l92 -66z" />
    <glyph glyph-name="uni1EB0" unicode="&#x1eb0;" horiz-adv-x="698" 
d="M16 0l273 700h122l271 -700h-135l-150 398q-5 12 -13.5 38t-18.5 56.5t-18 57t-12 38.5l25 1q-6 -20 -14 -45t-17 -52t-17.5 -52t-15.5 -45l-150 -395h-130zM140 160l45 113h319l48 -113h-412zM349 749q-64 0 -109.5 36.5t-58.5 100.5l79 12q15 -35 37 -50t52 -15
q29 0 52 15t37 50l79 -12q-13 -64 -58.5 -100.5t-109.5 -36.5zM348 886l-126 127l91 66l87 -152z" />
    <glyph glyph-name="uni1EB1" unicode="&#x1eb1;" horiz-adv-x="642" 
d="M271 -10q-65 0 -118 36t-85 98t-32 141t32 141t87 97t124 35q40 0 73 -11.5t58 -32.5t41.5 -48t22.5 -58l-27 7v132h124v-527h-125v126l29 5q-7 -27 -25.5 -52.5t-46 -45t-61 -31.5t-71.5 -12zM305 99q43 0 76 21t51.5 58.5t18.5 86.5q0 48 -18.5 85t-51.5 58t-76 21
t-75.5 -21t-50.5 -58t-18 -85q0 -49 18 -86.5t50.5 -58.5t75.5 -21zM322 591q-66 0 -110 38.5t-58 106.5l83 12q12 -34 34.5 -52t50.5 -18t50.5 18t34.5 52l83 -12q-14 -68 -58 -106.5t-110 -38.5zM324 759l-125 127l90 66l88 -153z" />
    <glyph glyph-name="uni1EB2" unicode="&#x1eb2;" horiz-adv-x="698" 
d="M16 0l273 700h122l271 -700h-135l-150 398q-5 12 -13.5 38t-18.5 56.5t-18 57t-12 38.5l25 1q-6 -20 -14 -45t-17 -52t-17.5 -52t-15.5 -45l-150 -395h-130zM140 160l45 113h319l48 -113h-412zM349 749q-64 0 -109.5 36.5t-58.5 100.5l79 12q13 -35 36.5 -50t52.5 -15
t52.5 15t36.5 50l79 -12q-13 -64 -58.5 -100.5t-109.5 -36.5zM327 885q-7 8 -11.5 17.5t-4.5 19.5q0 9 4.5 18t21.5 21q14 9 21.5 15.5t7.5 10.5q0 10 -8.5 14t-22.5 4q-17 0 -37 -5t-38 -13l-18 70q21 12 47.5 18.5t51.5 6.5q54 0 83.5 -23t29.5 -59q0 -24 -13.5 -37.5
t-26.5 -22.5q-18 -10 -27 -17t-9 -14q0 -3 1 -5.5t2 -4.5z" />
    <glyph glyph-name="uni1EB3" unicode="&#x1eb3;" horiz-adv-x="642" 
d="M271 -10q-65 0 -118 36t-85 98t-32 141t32 141t87 97t124 35q40 0 73 -11.5t58 -32.5t41.5 -48t22.5 -58l-27 7v132h124v-527h-125v126l29 5q-7 -27 -25.5 -52.5t-46 -45t-61 -31.5t-71.5 -12zM305 99q43 0 76 21t51.5 58.5t18.5 86.5q0 48 -18.5 85t-51.5 58t-76 21
t-75.5 -21t-50.5 -58t-18 -85q0 -49 18 -86.5t50.5 -58.5t75.5 -21zM322 591q-66 0 -110 38.5t-58 106.5l83 12q12 -34 34.5 -52t50.5 -18t50.5 18t34.5 52l83 -12q-14 -68 -58 -106.5t-110 -38.5zM298 760q-8 10 -12 19.5t-4 19.5q0 9 5.5 20t20.5 21q16 10 22.5 16.5
t7.5 13.5q0 9 -9 13.5t-22 4.5q-18 0 -37.5 -5.5t-38.5 -13.5l-18 71q20 13 47 19t52 6q55 0 84.5 -23t29.5 -59q0 -27 -13 -42t-28 -23q-17 -9 -26.5 -16t-9.5 -17q0 -3 1 -6l2 -6z" />
    <glyph glyph-name="uni1EB4" unicode="&#x1eb4;" horiz-adv-x="698" 
d="M16 0l273 700h122l271 -700h-135l-150 398q-5 12 -13.5 38t-18.5 56.5t-18 57t-12 38.5l25 1q-6 -20 -14 -45t-17 -52t-17.5 -52t-15.5 -45l-150 -395h-130zM140 160l45 113h319l48 -113h-412zM349 749q-64 0 -109.5 34t-58.5 95l79 12q14 -31 37 -44t52 -13t52 13t37 44
l79 -12q-13 -61 -58.5 -95t-109.5 -34zM427 942q-22 0 -42 6.5t-39 14.5q-18 9 -30 13.5t-22 4.5q-15 0 -24.5 -10t-13.5 -27l-76 8q1 47 31 79.5t73 32.5q21 0 39 -6.5t37 -15.5q14 -6 27 -11.5t23 -5.5q15 0 22 10t11 29l76 -8q-1 -31 -12 -57t-31 -41.5t-49 -15.5z" />
    <glyph glyph-name="uni1EB5" unicode="&#x1eb5;" horiz-adv-x="642" 
d="M271 -10q-65 0 -118 36t-85 98t-32 141t32 141t87 97t124 35q40 0 73 -11.5t58 -32.5t41.5 -48t22.5 -58l-27 7v132h124v-527h-125v126l29 5q-7 -27 -25.5 -52.5t-46 -45t-61 -31.5t-71.5 -12zM305 99q43 0 76 21t51.5 58.5t18.5 86.5q0 48 -18.5 85t-51.5 58t-76 21
t-75.5 -21t-50.5 -58t-18 -85q0 -49 18 -86.5t50.5 -58.5t75.5 -21zM321 591q-66 0 -110 38.5t-58 106.5l83 12q12 -34 34.5 -52t50.5 -18t50.5 18t35.5 52l82 -12q-14 -68 -58 -106.5t-110 -38.5zM398 822q-26 0 -45.5 8t-39.5 16q-13 6 -24 10.5t-23 4.5q-13 0 -23.5 -10
t-14.5 -27l-75 11q1 45 30 78t70 33q21 0 39.5 -8t37.5 -17q14 -6 25.5 -10.5t21.5 -4.5q14 0 24 9.5t13 28.5l76 -11q-1 -29 -12.5 -54.5t-31.5 -41t-48 -15.5z" />
    <glyph glyph-name="uni1EB6" unicode="&#x1eb6;" horiz-adv-x="698" 
d="M16 0l273 700h122l271 -700h-135l-150 398q-5 12 -13.5 38t-18.5 56.5t-18 57t-12 38.5l25 1q-6 -20 -14 -45t-17 -52t-17.5 -52t-15.5 -45l-150 -395h-130zM140 160l45 113h319l48 -113h-412zM349 -212q-38 0 -58.5 18.5t-20.5 53.5q0 32 21 52t58 20q38 0 58.5 -19
t20.5 -53q0 -32 -21 -52t-58 -20zM349 753q-42 0 -77 19t-58.5 50.5t-32.5 70.5l84 12q11 -25 33 -44t51 -19t51 19t33 44l84 -12q-8 -39 -32 -70.5t-58.5 -50.5t-77.5 -19z" />
    <glyph glyph-name="uni1EB7" unicode="&#x1eb7;" horiz-adv-x="642" 
d="M271 -10q-65 0 -118 36t-85 98t-32 141t32 141t87 97t124 35q40 0 73 -11.5t58 -32.5t41.5 -48t22.5 -58l-27 7v132h124v-527h-125v126l29 5q-7 -27 -25.5 -52.5t-46 -45t-61 -31.5t-71.5 -12zM305 99q43 0 76 21t51.5 58.5t18.5 86.5q0 48 -18.5 85t-51.5 58t-76 21
t-75.5 -21t-50.5 -58t-18 -85q0 -49 18 -86.5t50.5 -58.5t75.5 -21zM322 -212q-38 0 -58.5 18.5t-20.5 53.5q0 32 21 52t58 20q38 0 58.5 -19t20.5 -53q0 -32 -21 -52t-58 -20zM322 593q-66 0 -110 42t-58 114l84 12q12 -36 34 -57.5t50 -21.5t50 21.5t34 57.5l84 -12
q-14 -72 -58 -114t-110 -42z" />
    <glyph glyph-name="uni1EB8" unicode="&#x1eb8;" horiz-adv-x="625" 
d="M94 0v700h458v-118h-330v-464h334v-118h-462zM154 300v116h347v-116h-347zM312 -212q-38 0 -58.5 18.5t-20.5 53.5q0 32 21 52t58 20q38 0 58.5 -19t20.5 -53q0 -32 -21 -52t-58 -20z" />
    <glyph glyph-name="uni1EB9" unicode="&#x1eb9;" horiz-adv-x="586" 
d="M319 -10q-83 0 -146.5 35t-99 95.5t-35.5 138.5q0 62 20 113t55.5 88.5t85 58t108.5 20.5q52 0 97 -20t78 -54.5t50.5 -82t16.5 -103.5l-1 -43h-427l-23 84h347l-16 -17v22q-3 31 -20 54.5t-43.5 37t-58.5 13.5q-49 0 -82.5 -19t-50.5 -54.5t-17 -88.5q0 -51 21.5 -89
t61 -58.5t92.5 -20.5q37 0 68 12t67 43l61 -85q-27 -25 -61.5 -42.5t-72.5 -27.5t-75 -10zM319 -212q-38 0 -58.5 18.5t-20.5 53.5q0 32 21 52t58 20q38 0 58.5 -19t20.5 -53q0 -32 -21 -52t-58 -20z" />
    <glyph glyph-name="uni1EBA" unicode="&#x1eba;" horiz-adv-x="625" 
d="M94 0v700h458v-118h-330v-464h334v-118h-462zM154 300v116h347v-116h-347zM309 754q-7 10 -11.5 19.5t-4.5 19.5q0 11 5.5 22t22.5 23q16 10 23 16.5t7 14.5q0 9 -8.5 13t-21.5 4q-18 0 -37.5 -5.5t-38.5 -13.5l-19 70q21 12 48 19t53 7q54 0 83 -23t29 -59
q0 -27 -12.5 -42.5t-26.5 -23.5q-18 -9 -27.5 -16.5t-9.5 -17.5q0 -4 1 -7l2 -6z" />
    <glyph glyph-name="uni1EBB" unicode="&#x1ebb;" horiz-adv-x="586" 
d="M319 -10q-83 0 -146.5 35t-99 95.5t-35.5 138.5q0 62 20 113t55.5 88.5t85 58t108.5 20.5q52 0 97 -20t78 -54.5t50.5 -82t16.5 -103.5l-1 -43h-427l-23 84h347l-16 -17v22q-3 31 -20 54.5t-43.5 37t-58.5 13.5q-49 0 -82.5 -19t-50.5 -54.5t-17 -88.5q0 -51 21.5 -89
t61 -58.5t92.5 -20.5q37 0 68 12t67 43l61 -85q-27 -25 -61.5 -42.5t-72.5 -27.5t-75 -10zM283 592q-7 10 -11.5 20t-4.5 20t5.5 21.5t22.5 22.5q16 11 23 17t7 14q0 9 -8.5 13.5t-21.5 4.5q-18 0 -37.5 -5.5t-38.5 -14.5l-19 71q21 12 48 19t53 7q54 0 83 -23t29 -59
q0 -28 -12.5 -43t-26.5 -24q-18 -9 -27.5 -16.5t-9.5 -17.5q0 -3 1 -6.5t2 -6.5z" />
    <glyph glyph-name="uni1EBC" unicode="&#x1ebc;" horiz-adv-x="625" 
d="M94 0v700h458v-118h-330v-464h334v-118h-462zM154 300v116h347v-116h-347zM407 768q-22 0 -44.5 7t-44.5 16q-17 7 -29 11t-22 4q-14 0 -22 -9.5t-8 -28.5h-85q0 58 35 90.5t83 32.5q20 0 39.5 -6t40.5 -16q15 -6 27.5 -10t21.5 -4q14 0 21.5 10t6.5 26h84
q0 -32 -12.5 -60.5t-36 -45.5t-55.5 -17z" />
    <glyph glyph-name="uni1EBD" unicode="&#x1ebd;" horiz-adv-x="586" 
d="M319 -10q-83 0 -146.5 35t-99 95.5t-35.5 138.5q0 62 20 113t55.5 88.5t85 58t108.5 20.5q52 0 97 -20t78 -54.5t50.5 -82t16.5 -103.5l-1 -43h-427l-23 84h347l-16 -17v22q-3 31 -20 54.5t-43.5 37t-58.5 13.5q-49 0 -82.5 -19t-50.5 -54.5t-17 -88.5q0 -51 21.5 -89
t61 -58.5t92.5 -20.5q37 0 68 12t67 43l61 -85q-27 -25 -61.5 -42.5t-72.5 -27.5t-75 -10zM364 615q-19 0 -34 7t-33 21q-18 16 -28 22t-18 6q-13 0 -23.5 -13.5t-14.5 -41.5l-75 11q1 52 31 89t81 37q19 0 33.5 -7t32.5 -20q18 -14 27.5 -21t18.5 -7q14 0 24 13.5t13 40.5
l76 -11q-1 -33 -15 -62.5t-38.5 -46.5t-57.5 -17z" />
    <glyph glyph-name="uni1EBE" unicode="&#x1ebe;" horiz-adv-x="625" 
d="M94 0v700h458v-118h-330v-464h334v-118h-462zM154 300v116h347v-116h-347zM205 753l-38 43l126 99h78l126 -99l-38 -43l-142 64h30zM500 869l-56 40l87 152l92 -65z" />
    <glyph glyph-name="uni1EBF" unicode="&#x1ebf;" horiz-adv-x="586" 
d="M319 -10q-83 0 -146.5 35t-99 95.5t-35.5 138.5q0 62 20 113t55.5 88.5t85 58t108.5 20.5q52 0 97 -20t78 -54.5t50.5 -82t16.5 -103.5l-1 -43h-427l-23 84h347l-16 -17v22q-3 31 -20 54.5t-43.5 37t-58.5 13.5q-49 0 -82.5 -19t-50.5 -54.5t-17 -88.5q0 -51 21.5 -89
t61 -58.5t92.5 -20.5q37 0 68 12t67 43l61 -85q-27 -25 -61.5 -42.5t-72.5 -27.5t-75 -10zM182 605l-41 40l121 111h89l121 -111l-41 -40l-139 71h30zM483 748l-56 39l86 153l92 -66z" />
    <glyph glyph-name="uni1EC0" unicode="&#x1ec0;" horiz-adv-x="625" 
d="M94 0v700h458v-118h-330v-464h334v-118h-462zM154 300v116h347v-116h-347zM205 753l-37 43l125 99h79l125 -99l-37 -43l-142 64h29zM499 870l-125 127l91 66l87 -152z" />
    <glyph glyph-name="uni1EC1" unicode="&#x1ec1;" horiz-adv-x="586" 
d="M319 -10q-83 0 -146.5 35t-99 95.5t-35.5 138.5q0 62 20 113t55.5 88.5t85 58t108.5 20.5q52 0 97 -20t78 -54.5t50.5 -82t16.5 -103.5l-1 -43h-427l-23 84h347l-16 -17v22q-3 31 -20 54.5t-43.5 37t-58.5 13.5q-49 0 -82.5 -19t-50.5 -54.5t-17 -88.5q0 -51 21.5 -89
t61 -58.5t92.5 -20.5q37 0 68 12t67 43l61 -85q-27 -25 -61.5 -42.5t-72.5 -27.5t-75 -10zM182 605l-41 40l121 111h89l121 -111l-41 -40l-140 71h30zM465 746l-125 127l91 67l87 -153z" />
    <glyph glyph-name="uni1EC2" unicode="&#x1ec2;" horiz-adv-x="625" 
d="M94 0v700h458v-118h-330v-464h334v-118h-462zM154 300v116h347v-116h-347zM204 753l-37 43l125 99h79l125 -99l-37 -43l-142 64h29zM472 868q-7 8 -11.5 17.5t-4.5 18.5q0 10 4.5 19t22.5 20q13 9 21 15.5t8 11.5q0 9 -9 13.5t-22 4.5q-17 0 -37 -5.5t-38 -13.5l-19 71
q21 12 47.5 18.5t51.5 6.5q55 0 84.5 -23.5t29.5 -58.5q0 -24 -13.5 -37.5t-27.5 -22.5q-18 -10 -26.5 -17.5t-8.5 -14.5q0 -3 0.5 -5t1.5 -5z" />
    <glyph glyph-name="uni1EC3" unicode="&#x1ec3;" horiz-adv-x="586" 
d="M319 -10q-83 0 -146.5 35t-99 95.5t-35.5 138.5q0 62 20 113t55.5 88.5t85 58t108.5 20.5q52 0 97 -20t78 -54.5t50.5 -82t16.5 -103.5l-1 -43h-427l-23 84h347l-16 -17v22q-3 31 -20 54.5t-43.5 37t-58.5 13.5q-49 0 -82.5 -19t-50.5 -54.5t-17 -88.5q0 -51 21.5 -89
t61 -58.5t92.5 -20.5q37 0 68 12t67 43l61 -85q-27 -25 -61.5 -42.5t-72.5 -27.5t-75 -10zM182 605l-42 40l122 111h89l121 -111l-41 -40l-140 71h30zM454 737q-7 10 -11.5 19.5t-4.5 19.5q0 9 5.5 19.5t21.5 21.5q15 10 22 16.5t7 13.5q0 9 -9 13.5t-22 4.5q-17 0 -37 -4
t-38 -15l-19 71q21 12 47.5 18.5t51.5 6.5q55 0 84.5 -23.5t29.5 -58.5q0 -28 -12.5 -43t-28.5 -23q-17 -8 -26 -15t-9 -17q0 -4 0.5 -6.5t1.5 -5.5z" />
    </font>
</defs>
</svg>
