<?xml version="1.0" standalone="no"?>
<!DOCTYPE svg PUBLIC "-//W3C//DTD SVG 1.1//EN" "http://www.w3.org/Graphics/SVG/1.1/DTD/svg11.dtd" >
<svg xmlns="http://www.w3.org/2000/svg" xmlns:xlink="http://www.w3.org/1999/xlink" version="1.1">
<metadata>
Created by FontForge 20190801 at Tue Jul 31 09:31:38 2018
 By www-data
Pangram Pangram
</metadata>
<defs>
<font id="MonumentExtendedRegular" horiz-adv-x="0" >
  <font-face 
    font-family="MonumentExtendedRegular"
    font-weight="400"
    font-stretch="normal"
    units-per-em="1000"
    panose-1="0 0 5 0 0 0 0 0 0 0"
    ascent="800"
    descent="-200"
    x-height="589"
    cap-height="700"
    bbox="-1063 -335 2309 1082"
    underline-thickness="50"
    underline-position="-100"
    unicode-range="U+0020-25CA"
  />
<missing-glyph horiz-adv-x="550" 
d="M451 800v-1100h-349v1100h349zM366 726h-181v-36h71v-41h-72v-36h182v36h-72v41h72v36zM294 584h-110v-114h182v37h-72v77zM256 547v-40h-36v40h36zM366 440h-182v-36h72v-41h-72v-36h110v77h72v36zM366 374h-36v-72h-146v-38h182v110zM366 240h-110v-61h38v25h36v-52
h-110v88h-36v-124h182v124zM366 50h-182v-124h182v124zM330 14v-52h-110v52h110zM366 -100h-182v-36h77l-77 -52v-36h182v36h-112l77 52h35v36z" />
    <glyph glyph-name=".notdef" horiz-adv-x="550" 
d="M451 800v-1100h-349v1100h349zM366 726h-181v-36h71v-41h-72v-36h182v36h-72v41h72v36zM294 584h-110v-114h182v37h-72v77zM256 547v-40h-36v40h36zM366 440h-182v-36h72v-41h-72v-36h110v77h72v36zM366 374h-36v-72h-146v-38h182v110zM366 240h-110v-61h38v25h36v-52
h-110v88h-36v-124h182v124zM366 50h-182v-124h182v124zM330 14v-52h-110v52h110zM366 -100h-182v-36h77l-77 -52v-36h182v36h-112l77 52h35v36z" />
    <glyph glyph-name=".null" 
 />
    <glyph glyph-name="nonmarkingreturn" horiz-adv-x="333" 
 />
    <glyph glyph-name="space" unicode=" " horiz-adv-x="457" 
 />
    <glyph glyph-name="exclam" unicode="!" horiz-adv-x="266" 
d="M223 700l-4 -483h-172l-4 483h180zM47 134h171v-134h-171v134z" />
    <glyph glyph-name="quotedbl" unicode="&#x22;" horiz-adv-x="531" 
d="M223 720l-14 -320h-152l-14 320h180zM489 720l-14 -320h-152l-14 320h180z" />
    <glyph glyph-name="numbersign" unicode="#" horiz-adv-x="1301" 
d="M1238 409h-228l-65 -218h193v-142h-236l-59 -199h-176l59 199h-289l-59 -199h-176l59 199h-198v142h241l65 218h-206v142h248l51 169h176l-51 -169h289l51 169h176l-51 -169h186v-142zM769 191l65 218h-289l-65 -218h289z" />
    <glyph glyph-name="dollar" unicode="$" horiz-adv-x="1020" 
d="M957 215q0 -64 -26.5 -107.5t-79.5 -68t-119 -35.5t-158 -13v-91h-120v91q-130 4 -212.5 26.5t-130.5 77.5t-48 146h180q0 -51 46 -76t165 -30v156q-202 14 -286 61t-84 155q0 104 93.5 150.5t276.5 51.5v91h120v-92q353 -18 353 -237h-180q0 46 -40 67.5t-133 26.5v-147
q80 -5 132.5 -11t104.5 -19.5t81 -34.5t47 -55.5t18 -82.5zM264 498q0 -37 36.5 -51t153.5 -21v141q-112 -1 -151 -16t-39 -53zM574 133q115 3 159 20t44 56t-37.5 53.5t-165.5 22.5v-152z" />
    <glyph glyph-name="percent" unicode="%" horiz-adv-x="1690" 
d="M368 259q-154 0 -229.5 76.5t-75.5 199.5q0 122 75.5 198.5t229.5 76.5t230 -76.5t76 -198.5q0 -123 -75.5 -199.5t-230.5 -76.5zM1062 800l-260 -870h-176l260 870h176zM368 402q134 0 134 133q0 132 -134 132t-134 -132q0 -133 134 -133zM1321 -80q-154 0 -229.5 76.5
t-75.5 199.5q0 122 75.5 198.5t229.5 76.5t230 -76.5t76 -198.5q0 -123 -75.5 -199.5t-230.5 -76.5zM1321 63q134 0 134 133q0 132 -134 132t-134 -132q0 -133 134 -133z" />
    <glyph glyph-name="ampersand" unicode="&#x26;" horiz-adv-x="1078" 
d="M1035 125l-77 -125q-174 83 -186 89q-160 -99 -378 -99q-351 0 -351 203q0 154 211 197q-58 65 -58 144q0 86 76.5 131t221.5 45q126 0 210 -45t84 -121q0 -68 -63.5 -112.5t-188.5 -77.5q78 -42 196 -96q63 54 113 123l154 -58q-47 -77 -106 -137zM494 584
q-127 0 -127 -70q0 -44 60 -91q190 41 190 102q0 28 -32.5 43.5t-90.5 15.5zM401 133q102 0 196 40q-172 85 -251 140q-62 -15 -97 -36.5t-35 -55.5q0 -88 187 -88z" />
    <glyph glyph-name="quotesingle" unicode="'" horiz-adv-x="266" 
d="M223 720l-14 -320h-152l-14 320h180z" />
    <glyph glyph-name="parenleft" unicode="(" horiz-adv-x="656" 
d="M43 301q0 145 30 240t100 153t175 82t265 24v-151q-112 0 -182 -14.5t-119 -53.5t-69 -106t-20 -174t20.5 -174.5t69.5 -107t119 -54t181 -14.5v-151q-160 0 -265 24t-175 82.5t-100 154t-30 240.5z" />
    <glyph glyph-name="parenright" unicode=")" horiz-adv-x="656" 
d="M613 301q0 -145 -30 -240.5t-100 -154t-175 -82.5t-265 -24v151q111 0 181 14.5t119 54t69.5 107t20.5 174.5t-20 174t-69 106t-119 53.5t-182 14.5v151q160 0 265 -24t175 -82t100 -153t30 -240z" />
    <glyph glyph-name="asterisk" unicode="*" horiz-adv-x="583" 
d="M43 513l143 70l-143 71l63 109l132 -88l-10 124l126 1l-10 -125l132 88l64 -109l-143 -71l143 -70l-63 -109l-133 88l10 -125h-125l10 125l-133 -88z" />
    <glyph glyph-name="plus" unicode="+" horiz-adv-x="926" 
d="M863 411v-142h-323v-269h-171v269h-306v142h306v269h171v-269h323z" />
    <glyph glyph-name="comma" unicode="," horiz-adv-x="257" 
d="M43 134h171v-134l-81 -197h-82l51 197h-59v134z" />
    <glyph glyph-name="hyphen" unicode="-" horiz-adv-x="926" 
d="M63 411h800v-142h-800v142z" />
    <glyph glyph-name="period" unicode="." horiz-adv-x="257" 
d="M43 134h171v-134h-171v134z" />
    <glyph glyph-name="slash" unicode="/" horiz-adv-x="521" 
d="M478 720l-260 -870h-176l260 870h176z" />
    <glyph glyph-name="zero" unicode="0" horiz-adv-x="886" 
d="M443 -10q-206 0 -308 92t-102 269q0 359 410 359q205 0 307.5 -92t102.5 -267q0 -176 -102.5 -268.5t-307.5 -92.5zM443 141q116 0 173 54.5t57 155.5q0 100 -57 154t-173 54t-173 -53.5t-57 -154.5t57 -155.5t173 -54.5z" />
    <glyph glyph-name="one" unicode="1" horiz-adv-x="746" 
d="M463 151h240v-151h-660v151h241l1 330q-35 -31 -83 -47t-78 -18t-81 -2v152q30 0 46.5 0.5t45.5 3t46 7t39 14.5t34 24t20.5 35.5t8.5 49.5h180v-549z" />
    <glyph glyph-name="two" unicode="2" horiz-adv-x="860" 
d="M827 490q0 -55 -27.5 -96.5t-72.5 -65.5t-99.5 -41t-111 -29.5t-104.5 -25.5t-83 -33t-44 -48h532v-151h-784v91q0 59 34 104t88 72t119.5 47.5t131 35.5t119.5 30.5t88 39.5t34 56q0 45 -40 64t-152 19q-123 0 -174.5 -27t-51.5 -107h-180q0 68 19.5 119t52.5 82.5
t84.5 50.5t108.5 26t131 7q193 0 287.5 -48t94.5 -172z" />
    <glyph glyph-name="three" unicode="3" horiz-adv-x="860" 
d="M719 350q108 -52 108 -153q0 -112 -97 -159.5t-290 -47.5q-97 0 -167 12t-126.5 41.5t-85 85t-28.5 136.5h180q0 -78 54 -101t183 -23q112 0 154.5 15.5t42.5 63.5q0 51 -54 63.5t-243 12.5v108q187 0 242 12.5t55 63.5q0 46 -40.5 62.5t-156.5 16.5q-135 0 -186 -24
t-51 -100h-180q0 81 28.5 136.5t85 85t126.5 41.5t167 12q193 0 290 -47.5t97 -159.5q0 -101 -108 -153z" />
    <glyph glyph-name="four" unicode="4" horiz-adv-x="900" 
d="M857 266v-152h-140v-114h-180v114h-494v152l494 434h180v-434h140zM237 266h300v254z" />
    <glyph glyph-name="five" unicode="5" horiz-adv-x="860" 
d="M539 472q136 0 212 -61.5t76 -173.5q0 -126 -100 -186.5t-282 -60.5q-74 0 -132.5 6.5t-112.5 23.5t-89.5 44.5t-56.5 72.5t-21 106h180q0 -57 57.5 -79.5t179.5 -22.5q107 0 152 29.5t45 86.5q0 54 -38 83t-135 29q-103 0 -258 -62l-148 29l90 364h619v-143h-485
l-45 -149q81 35 145.5 49.5t146.5 14.5z" />
    <glyph glyph-name="six" unicode="6" horiz-adv-x="886" 
d="M506 472q337 0 337 -237q0 -122 -97 -183.5t-283 -61.5q-221 0 -320.5 85t-99.5 258q0 105 29.5 180.5t83 117.5t118.5 60.5t147 18.5q177 0 375 -42v-143q-7 1 -41.5 8t-46 9t-42 7.5t-49 7.5t-46 5t-53.5 4t-53 1q-115 0 -170 -35t-68 -136q98 76 279 76zM443 133
q122 0 171 29.5t49 87.5t-49 87t-171 29q-220 0 -220 -116q0 -117 220 -117z" />
    <glyph glyph-name="seven" unicode="7" horiz-adv-x="783" 
d="M20 700h743v-151q-201 -99 -305 -250.5t-104 -298.5h-180q0 71 18 143t56 145.5t106 142t160 118.5h-494v151z" />
    <glyph glyph-name="eight" unicode="8" horiz-adv-x="886" 
d="M707 397q146 -52 146 -189q0 -73 -37 -119.5t-129 -72.5t-244 -26q-225 0 -317.5 53.5t-92.5 164.5q0 137 146 189q-76 46 -76 129q0 95 80 139.5t260 44.5q179 0 259.5 -44.5t80.5 -139.5q0 -83 -76 -129zM443 580q-101 0 -139 -15t-38 -53t37.5 -53t139.5 -15
q101 0 139 15t38 53t-38 53t-139 15zM443 129q128 0 179 23.5t51 76.5q0 51 -50.5 74.5t-179.5 23.5t-179.5 -23t-50.5 -75q0 -53 51 -76.5t179 -23.5z" />
    <glyph glyph-name="nine" unicode="9" horiz-adv-x="866" 
d="M413 710q221 0 320.5 -85t99.5 -258q0 -105 -29.5 -180.5t-83 -117.5t-118.5 -60.5t-147 -18.5q-177 0 -375 42v143q7 -1 41.5 -8t46 -9t42 -7.5t49 -7.5t46 -5t53.5 -4t53 -1q115 0 170 35t68 136q-98 -76 -279 -76q-337 0 -337 237q0 122 97 183.5t283 61.5zM433 334
q220 0 220 116q0 117 -220 117q-122 0 -171 -29.5t-49 -87.5t49 -87t171 -29z" />
    <glyph glyph-name="colon" unicode=":" horiz-adv-x="257" 
d="M43 434h171v-134h-171v134zM43 134h171v-134h-171v134z" />
    <glyph glyph-name="semicolon" unicode=";" horiz-adv-x="257" 
d="M43 434h171v-134h-171v134zM43 0v134h171v-134l-81 -197h-82l51 197h-59z" />
    <glyph glyph-name="less" unicode="&#x3c;" horiz-adv-x="836" 
d="M773 600v-151l-573 -109l573 -109v-151l-710 140v240z" />
    <glyph glyph-name="equal" unicode="=" horiz-adv-x="926" 
d="M63 571h800v-142h-800v142zM63 251h800v-142h-800v142z" />
    <glyph glyph-name="greater" unicode="&#x3e;" horiz-adv-x="836" 
d="M63 600l710 -140v-240l-710 -140v151l573 109l-573 109v151z" />
    <glyph glyph-name="question" unicode="?" horiz-adv-x="840" 
d="M458 217h-171q0 47 18 80.5t47.5 51.5t64.5 30t70 20t64.5 17.5t47.5 26.5t18 43q0 73 -177 73q-116 0 -166.5 -25.5t-50.5 -97.5h-180q0 81 28 136t83 84.5t120.5 41.5t155.5 12q179 0 273 -47.5t94 -156.5q0 -50 -24 -86.5t-60 -54.5t-79 -34t-80.5 -28t-64.5 -33.5
t-31 -52.5zM287 134h171v-134h-171v134z" />
    <glyph glyph-name="at" unicode="@" horiz-adv-x="1233" 
d="M662 810q272 0 390 -99.5t118 -316.5v-411h-172v82q-86 -90 -265 -92q-342 -4 -342 290q0 67 18.5 118t49.5 82.5t76 52t92.5 28.5t105.5 9q175 3 263 -88q-4 53 -28 91.5t-56 59.5t-77.5 33t-82 15t-80.5 3q-75 0 -139 -13t-120 -43t-95 -75.5t-61.5 -113.5t-22.5 -154
q0 -62 9.5 -113t25.5 -90.5t44 -70.5t59.5 -53t77.5 -37.5t91.5 -25t109 -14.5t122.5 -7t138 -2l-10 -143q-189 0 -324 17.5t-236 55.5t-161 103.5t-88.5 158t-28.5 221.5q0 261 158 401.5t441 140.5zM780 116q105 0 158.5 31t58.5 100v33q-5 68 -58.5 99t-158.5 31
q-111 0 -164.5 -35t-53.5 -112t53.5 -112t164.5 -35z" />
    <glyph glyph-name="A" unicode="A" horiz-adv-x="1032" 
d="M800 0l-75 149h-419l-75 -149h-198l361 700h243l362 -700h-199zM373 283h285l-142 284z" />
    <glyph glyph-name="B" unicode="B" horiz-adv-x="944" 
d="M812 380q99 -61 99 -176q0 -93 -57 -148.5t-171 -55.5h-640v700h616q208 0 208 -184q0 -75 -55 -136zM223 570v-145h371h1q24 0 35.5 1.5t27.5 7.5t22.5 22t6.5 42t-6.5 41.5t-22.5 21.5t-28 7.5t-36 1.5h-371zM639 139q19 0 28.5 0.5t24 4.5t21.5 11t12.5 22t5.5 36
t-5.5 36t-12.5 22t-21.5 11t-24 4.5t-28.5 0.5h-416v-148h416z" />
    <glyph glyph-name="C" unicode="C" horiz-adv-x="943" 
d="M33 351q0 178 106.5 268.5t333.5 90.5q410 0 437 -308h-183q-12 83 -75 120t-179 37q-136 0 -198 -50t-62 -158q0 -109 62 -159.5t198 -50.5q115 0 178.5 38t75.5 121h183q-27 -310 -437 -310q-227 0 -333.5 91t-106.5 270z" />
    <glyph glyph-name="D" unicode="D" horiz-adv-x="924" 
d="M551 700q69 0 129.5 -21.5t108 -63.5t75 -110.5t27.5 -154.5t-27.5 -154.5t-75 -110.5t-108 -63.5t-129.5 -21.5h-508v700h508zM483 151q56 0 94 7.5t70.5 28t48 61t15.5 102.5t-15.5 102.5t-48 61t-70.5 28t-94 7.5h-260v-398h260z" />
    <glyph glyph-name="E" unicode="E" horiz-adv-x="816" 
d="M783 557h-560v-142h560v-130h-560v-142h560v-143h-740v700h740v-143z" />
    <glyph glyph-name="F" unicode="F" horiz-adv-x="816" 
d="M783 549h-560v-178h500v-152h-500v-219h-180v700h740v-151z" />
    <glyph glyph-name="G" unicode="G" horiz-adv-x="943" 
d="M466 258v117h444v-375h-133l-8 110q-110 -120 -320 -120q-195 0 -305.5 94t-110.5 266q0 174 115 267t331 93q205 0 314 -74.5t117 -208.5h-183q-4 23 -17 43.5t-39 42t-75.5 34t-116.5 12.5t-117 -14.5t-78 -36t-44.5 -52t-21.5 -56t-5 -54.5t5 -55.5t22 -57.5
t44.5 -52.5t77.5 -36.5t117 -15q119 0 181.5 40.5t66.5 88.5h-261z" />
    <glyph glyph-name="H" unicode="H" horiz-adv-x="1016" 
d="M793 700h180v-700h-180v274h-570v-274h-180v700h180v-274h570v274z" />
    <glyph glyph-name="I" unicode="I" horiz-adv-x="266" 
d="M223 700v-700h-180v700h180z" />
    <glyph glyph-name="J" unicode="J" horiz-adv-x="926" 
d="M883 700v-349q0 -183 -103 -272t-317 -89q-215 0 -317.5 88.5t-102.5 272.5h180q0 -43 8 -75t31.5 -65.5t74 -51.5t126.5 -18q61 0 106.5 13t70.5 32.5t39.5 49t19 56t4.5 59.5v198h-332v151h512z" />
    <glyph glyph-name="K" unicode="K" horiz-adv-x="1028" 
d="M995 700l-424 -311l424 -389h-249l-308 291l-215 -157v-134h-180v700h180v-363l499 363h273z" />
    <glyph glyph-name="L" unicode="L" horiz-adv-x="796" 
d="M223 151h540v-151h-720v700h180v-549z" />
    <glyph glyph-name="M" unicode="M" horiz-adv-x="1158" 
d="M1115 700v-700h-180v480l-291 -480h-130l-291 480v-480h-180v700h243l293 -494l293 494h243z" />
    <glyph glyph-name="N" unicode="N" horiz-adv-x="988" 
d="M765 700h180v-700h-245l-477 525v-525h-180v700h244l478 -526v526z" />
    <glyph glyph-name="O" unicode="O" horiz-adv-x="946" 
d="M473 -10q-227 0 -333.5 91t-106.5 270q0 178 106.5 268.5t333.5 90.5q440 0 440 -359q0 -361 -440 -361zM473 141q138 0 199 50.5t61 159.5q0 108 -60.5 158t-199.5 50t-199.5 -49.5t-60.5 -158.5t60.5 -159.5t199.5 -50.5z" />
    <glyph glyph-name="P" unicode="P" horiz-adv-x="894" 
d="M593 700q120 0 194 -70.5t74 -186.5t-74 -186t-194 -70h-370v-187h-180v700h550zM543 338q23 0 36 0.5t35 6t34.5 16t22.5 31.5t10 51t-10 51.5t-22.5 32t-34.5 16t-35 6t-36 0.5h-320v-211h320z" />
    <glyph glyph-name="Q" unicode="Q" horiz-adv-x="1016" 
d="M973 38l-127 -127l-121 121q-99 -42 -252 -42q-227 0 -333.5 91t-106.5 270q0 178 106.5 268.5t333.5 90.5q440 0 440 -359q0 -122 -50 -203zM213 351q0 -109 60.5 -159.5t199.5 -50.5q138 0 199 50.5t61 159.5q0 108 -60.5 158t-199.5 50t-199.5 -49.5t-60.5 -158.5z
" />
    <glyph glyph-name="R" unicode="R" horiz-adv-x="894" 
d="M861 443q0 -84 -40.5 -145.5t-111.5 -89.5l129 -208h-212l-113 187h-290v-187h-180v700h550q120 0 194 -70.5t74 -186.5zM223 549v-211h320q23 0 36 0.5t35 6t34.5 16t22.5 31.5t10 51t-10 51.5t-22.5 32t-34.5 16t-35 6t-36 0.5h-320z" />
    <glyph glyph-name="S" unicode="S" horiz-adv-x="960" 
d="M33 241h180q0 -58 61.5 -83t226.5 -25q140 0 193 17t53 59q0 23 -9 35.5t-40.5 21.5t-79 13.5t-138.5 8.5q-235 11 -330.5 57.5t-95.5 161.5q0 75 51.5 121t141 64t226.5 18q206 0 315 -57t109 -182h-180q0 56 -59.5 76t-204.5 20q-130 0 -174.5 -14.5t-44.5 -54.5
t45 -53.5t201 -22.5q62 -3 99.5 -6t86.5 -8t77.5 -11.5t62.5 -17t53 -25t36.5 -34.5t24.5 -46t7 -59q0 -68 -30.5 -113.5t-92 -69.5t-135 -33t-178.5 -9q-90 0 -158 6.5t-126.5 23.5t-95.5 45t-57.5 72t-20.5 104z" />
    <glyph glyph-name="T" unicode="T" horiz-adv-x="926" 
d="M893 700v-151h-340v-549h-180v549h-340v151h860z" />
    <glyph glyph-name="U" unicode="U" horiz-adv-x="966" 
d="M923 351q0 -184 -106 -272.5t-334 -88.5q-229 0 -334.5 88t-105.5 273v349h180v-349q0 -34 4.5 -60t20 -55.5t43 -49t76.5 -32.5t116 -13t116 13t76 32.5t43 49t20.5 55.5t4.5 60v349h180v-349z" />
    <glyph glyph-name="V" unicode="V" horiz-adv-x="1032" 
d="M797 700h202l-360 -700h-246l-360 700h202l281 -567z" />
    <glyph glyph-name="W" unicode="W" horiz-adv-x="1528" 
d="M1300 700h195l-276 -700h-249l-206 527l-207 -527h-248l-276 700h194l207 -550l219 550h221l220 -551z" />
    <glyph glyph-name="X" unicode="X" horiz-adv-x="1098" 
d="M33 0l394 350l-394 350h248l268 -240l267 240h249l-394 -350l394 -350h-249l-267 240l-268 -240h-248z" />
    <glyph glyph-name="Y" unicode="Y" horiz-adv-x="1038" 
d="M429 230l-396 470h217l269 -319l269 319h217l-396 -470v-230h-180v230z" />
    <glyph glyph-name="Z" unicode="Z" horiz-adv-x="876" 
d="M833 700v-151l-532 -398h532v-151h-790v151l531 398h-531v151h790z" />
    <glyph glyph-name="bracketleft" unicode="[" horiz-adv-x="656" 
d="M613 649h-390v-698h390v-151h-570v1000h570v-151z" />
    <glyph glyph-name="backslash" unicode="\" horiz-adv-x="521" 
d="M43 720h176l260 -870h-176z" />
    <glyph glyph-name="bracketright" unicode="]" horiz-adv-x="656" 
d="M613 800v-1000h-570v151h390v698h-390v151h570z" />
    <glyph glyph-name="asciicircum" unicode="^" horiz-adv-x="927" 
d="M864 350h-175l-225 356l-227 -356h-174l287 450h228z" />
    <glyph glyph-name="underscore" unicode="_" horiz-adv-x="1126" 
d="M63 -63h1000v-134h-1000v134z" />
    <glyph glyph-name="grave" unicode="`" horiz-adv-x="515" 
d="M452 789v-118l-389 80v118z" />
    <glyph glyph-name="a" unicode="a" horiz-adv-x="874" 
d="M443 599q192 0 289.5 -70t98.5 -232v-297h-172v73q-169 -83 -358 -83q-268 0 -268 186q0 55 28.5 95.5t79.5 63t112 32.5t135 10q147 0 271 -42q0 121 -224 121q-147 0 -292 -43l-61 125q188 61 361 61zM659 183v46q-114 36 -250 36q-205 0 -205 -82q0 -43 34.5 -55
t111.5 -12q69 0 155.5 19t153.5 48z" />
    <glyph glyph-name="b" unicode="b" horiz-adv-x="892" 
d="M508 599q74 0 135 -16.5t110.5 -51t77.5 -95t28 -142.5t-28 -142t-77.5 -94.5t-110.5 -51t-135 -16.5q-197 0 -294 102v-92h-171v800h171v-303q97 102 294 102zM451 133q118 0 177 38t59 123q0 86 -59 124t-177 38t-177.5 -38.5t-59.5 -123.5t59.5 -123t177.5 -38z" />
    <glyph glyph-name="c" unicode="c" horiz-adv-x="877" 
d="M33 294q0 157 108 231t300 74q172 0 277.5 -60t125.5 -185h-175q-17 55 -73.5 78.5t-154.5 23.5q-117 0 -177 -37t-60 -125q0 -87 60 -124t177 -37q98 0 154.5 23.5t73.5 78.5h175q-20 -125 -125.5 -185t-277.5 -60q-192 0 -300 74t-108 230z" />
    <glyph glyph-name="d" unicode="d" horiz-adv-x="892" 
d="M678 800h171v-800h-171v92q-97 -102 -294 -102q-74 0 -135 16.5t-110.5 51t-77.5 94.5t-28 142t28 142.5t77.5 95t110.5 51t135 16.5q197 0 294 -102v303zM441 133q118 0 177.5 38t59.5 123t-59.5 123.5t-177.5 38.5t-177 -38t-59 -124q0 -85 59 -123t177 -38z" />
    <glyph glyph-name="e" unicode="e" horiz-adv-x="877" 
d="M431 129q90 0 145.5 19t87.5 63h170q-29 -111 -132.5 -166t-270.5 -55q-179 0 -288.5 75t-109.5 229q0 156 109.5 230.5t298.5 74.5q403 0 403 -345h-636q25 -125 223 -125zM440 469q-95 0 -151 -23.5t-75 -82.5h447q-37 106 -221 106z" />
    <glyph glyph-name="f" unicode="f" horiz-adv-x="642" 
d="M486 684q-73 0 -98.5 -19.5t-27.5 -75.5h249v-143h-249v-446h-172v446h-155v143h155v44q0 91 58 134t186 43q90 0 177 -10v-121q-65 5 -123 5z" />
    <glyph glyph-name="g" unicode="g" horiz-adv-x="892" 
d="M677 589h172v-495q0 -173 -104 -258.5t-280 -85.5q-190 0 -369 47v138q3 -1 38 -7.5t50.5 -9.5t52.5 -8.5t63 -8.5t61 -5.5t66 -2.5q131 0 188 52t62 167q-95 -105 -298 -105q-159 0 -252.5 73t-93.5 223t93.5 223t252.5 73q204 0 298 -105v95zM441 150q122 0 179 36.5
t57 116.5t-57 116.5t-179 36.5t-179.5 -36.5t-57.5 -116.5t57.5 -116.5t179.5 -36.5z" />
    <glyph glyph-name="h" unicode="h" horiz-adv-x="905" 
d="M557 599q303 0 306 -273l-2 -326h-172v261q0 98 -40.5 144t-142.5 46q-83 0 -166.5 -36t-125.5 -85v-330h-171v800h171v-314q144 113 343 113z" />
    <glyph glyph-name="i" unicode="i" horiz-adv-x="257" 
d="M43 800h171v-149h-171v149zM43 589h171v-589h-171v589z" />
    <glyph glyph-name="j" unicode="j" horiz-adv-x="466" 
d="M252 800h172v-149h-172v149zM424 589v-562q0 -142 -53.5 -209.5t-190.5 -67.5q-91 0 -177 15v138q82 -10 123 -10q79 0 102.5 25.5t23.5 117.5v553h172z" />
    <glyph glyph-name="k" unicode="k" horiz-adv-x="968" 
d="M935 589l-382 -241l382 -348h-238l-282 257l-201 -121v-136h-171v800h171v-476l429 265h292z" />
    <glyph glyph-name="l" unicode="l" horiz-adv-x="257" 
d="M43 800h171v-800h-171v800z" />
    <glyph glyph-name="m" unicode="m" horiz-adv-x="1362" 
d="M1065 599q251 0 254 -269l-2 -330h-171v261q0 102 -28.5 146t-114.5 44q-64 0 -126 -26t-104 -64q1 -10 1 -31l-2 -330h-171v261q0 102 -28.5 146t-114.5 44q-70 0 -137 -30.5t-107 -73.5v-347h-171v589h171v-96q133 106 306 106q159 0 218 -108q144 108 327 108z" />
    <glyph glyph-name="n" unicode="n" horiz-adv-x="905" 
d="M557 599q303 0 306 -273l-2 -326h-172v261q0 98 -40.5 144t-142.5 46q-83 0 -166.5 -36t-125.5 -85v-330h-171v589h171v-103q144 113 343 113z" />
    <glyph glyph-name="o" unicode="o" horiz-adv-x="882" 
d="M441 -10q-192 0 -300 74t-108 230q0 157 108 231t300 74q191 0 299.5 -74.5t108.5 -230.5t-108.5 -230t-299.5 -74zM441 133q123 0 179.5 36t56.5 125q0 90 -56.5 126t-179.5 36t-180 -36t-57 -126q0 -89 57 -125t180 -36z" />
    <glyph glyph-name="p" unicode="p" horiz-adv-x="892" 
d="M508 599q156 0 253.5 -73.5t97.5 -231.5q0 -82 -27.5 -142t-77 -94.5t-111 -51t-135.5 -16.5q-197 0 -293 101v-341h-172v839h172v-91q98 101 293 101zM451 133q118 0 177.5 38t59.5 123t-59.5 123.5t-177.5 38.5t-177 -38t-59 -124q0 -85 59 -123t177 -38z" />
    <glyph glyph-name="q" unicode="q" horiz-adv-x="892" 
d="M677 589h172v-839h-172v341q-96 -101 -293 -101q-74 0 -135.5 16.5t-111 51t-77 94.5t-27.5 142q0 158 97.5 231.5t253.5 73.5q195 0 293 -101v91zM441 133q118 0 177 38t59 123q0 86 -59 124t-177 38t-177.5 -38.5t-59.5 -123.5t59.5 -123t177.5 -38z" />
    <glyph glyph-name="r" unicode="r" horiz-adv-x="708" 
d="M516 599q79 0 159 -20v-143q-80 20 -151 20q-178 0 -310 -103v-353h-171v589h171v-100q123 110 302 110z" />
    <glyph glyph-name="s" unicode="s" horiz-adv-x="880" 
d="M33 207h171q0 -48 57 -67.5t199 -19.5q94 0 139 5.5t60.5 17t15.5 35.5q0 33 -37 42t-198 19q-73 4 -119.5 8.5t-95 12.5t-76.5 20t-51.5 30.5t-33.5 44.5t-10 61q0 45 21 78t55 53t86.5 32t106 16t121.5 4q91 0 154.5 -7.5t118.5 -27t82.5 -58.5t27.5 -98h-172
q0 36 -49 48.5t-172 12.5q-120 0 -164 -10t-44 -36q0 -15 7 -23t35 -14.5t68.5 -10.5t123.5 -10q191 -14 250 -29q109 -27 131 -102q6 -22 6 -49q0 -49 -18 -84t-48.5 -56.5t-80.5 -33.5t-103 -16.5t-127 -4.5q-75 0 -133 4.5t-118 18t-98.5 36.5t-63 63t-24.5 95z" />
    <glyph glyph-name="t" unicode="t" horiz-adv-x="672" 
d="M639 446h-279v-170q0 -86 24.5 -114.5t101.5 -28.5q84 0 153 10v-138q-85 -15 -201 -15q-118 0 -184 46t-66 141v269h-155v143h155v122l172 49v-171h279v-143z" />
    <glyph glyph-name="u" unicode="u" horiz-adv-x="905" 
d="M691 589h171v-589h-171v103q-144 -113 -343 -113q-303 0 -306 273l2 326h172v-261q0 -98 40.5 -144t142.5 -46q83 0 166.5 36t125.5 85v330z" />
    <glyph glyph-name="v" unicode="v" horiz-adv-x="907" 
d="M684 589h190l-299 -589h-244l-298 589h190l231 -468z" />
    <glyph glyph-name="w" unicode="w" horiz-adv-x="1398" 
d="M1174 589h191l-265 -589h-228l-173 410l-173 -410h-228l-265 589h191l193 -455l180 455h204l180 -454z" />
    <glyph glyph-name="x" unicode="x" horiz-adv-x="958" 
d="M33 0l331 294l-331 295h230l216 -195l216 195h230l-332 -295l332 -294h-230l-216 195l-216 -195h-230z" />
    <glyph glyph-name="y" unicode="y" horiz-adv-x="927" 
d="M705 589h189l-398 -839h-189l119 250h-88l-305 589h190l252 -486z" />
    <glyph glyph-name="z" unicode="z" horiz-adv-x="780" 
d="M737 589v-143l-441 -303h441v-143h-694v143l441 303h-441v143h694z" />
    <glyph glyph-name="braceleft" unicode="{" horiz-adv-x="656" 
d="M43 181v240q34 0 50 1t39 5.5t33 15t18 30t8 48.5q0 70 10 114t35 78.5t74.5 52t121 26t181.5 8.5v-151q-62 0 -100.5 -2t-73.5 -9.5t-54 -20.5t-33 -35.5t-19 -53.5t-5 -77q0 -42 -14 -70.5t-37 -40t-40.5 -15.5t-37.5 -4v-40q20 0 37.5 -4t40.5 -15.5t37 -40t14 -70.5
q0 -46 5 -77.5t19 -54.5t33 -35.5t54 -20.5t73.5 -10t100.5 -2v-151q-95 0 -161 5t-114 19.5t-76 33.5t-44.5 53t-21.5 72.5t-5 97.5q0 29 -8 48.5t-18 30t-33 15t-39 5.5t-50 1z" />
    <glyph glyph-name="bar" unicode="|" horiz-adv-x="297" 
d="M63 720h171v-870h-171v870z" />
    <glyph glyph-name="braceright" unicode="}" horiz-adv-x="656" 
d="M613 181q-34 0 -50 -1t-39 -5.5t-33 -15t-18 -30t-8 -48.5q0 -59 -5 -97.5t-21.5 -72.5t-44.5 -53t-76 -33.5t-114 -19.5t-161 -5v151q62 0 100.5 2t73.5 10t54 20.5t33 35.5t19 54.5t5 77.5q0 42 14 70.5t37 40t40.5 15.5t37.5 4v40q-20 0 -37.5 4t-40.5 15.5t-37 40
t-14 70.5q0 46 -5 77t-19 53.5t-33 35.5t-54 20.5t-73.5 9.5t-100.5 2v151q110 0 181.5 -8.5t121 -26t74.5 -52t35 -78.5t10 -114q0 -29 8 -48.5t18 -30t33 -15t39 -5.5t50 -1v-240z" />
    <glyph glyph-name="asciitilde" unicode="~" horiz-adv-x="926" 
d="M63 180q0 159 50 239.5t170 80.5q49 0 89.5 -17.5t67.5 -42t51 -49.5t54 -42.5t64 -17.5q49 0 70 36.5t21 132.5h163q0 -159 -50 -239.5t-170 -80.5q-49 0 -89.5 17.5t-67.5 42t-51 49.5t-54 42.5t-64 17.5q-49 0 -70 -36.5t-21 -132.5h-163z" />
    <glyph glyph-name="exclamdown" unicode="&#xa1;" horiz-adv-x="266" 
d="M47 466v134h171v-134h-171zM223 -100h-180l4 483h172z" />
    <glyph glyph-name="cent" unicode="&#xa2;" horiz-adv-x="937" 
d="M533 192q140 13 166 99h175q-36 -222 -341 -243v-148h-120v148q-166 10 -258 84.5t-92 217.5q0 144 92 218.5t258 84.5v147h120v-147q305 -21 341 -243h-175q-26 86 -166 99v-317zM234 350q0 -76 45.5 -113.5t133.5 -45.5v319q-88 -8 -133.5 -45.5t-45.5 -114.5z" />
    <glyph glyph-name="sterling" unicode="&#xa3;" horiz-adv-x="866" 
d="M566 659q-96 0 -140.5 -24.5t-53 -76.5t0.5 -134h314v-109h-306q-3 -173 -138 -264h560v-151h-740v151q76 60 109.5 115.5t32.5 148.5h-142v109h132q-29 195 45 290.5t279 95.5q119 0 284 -30v-151q-150 30 -237 30z" />
    <glyph glyph-name="currency" unicode="&#xa4;" horiz-adv-x="942" 
d="M879 344q0 -165 -126 -242l125 -125l-81 -80l-160 160q-71 -17 -166 -17q-88 0 -160 15l-158 -158l-81 80l122 122q-131 76 -131 245q0 166 127 244l-118 118l81 80l154 -154q69 17 164 17t171 -18l155 155l81 -80l-121 -122q122 -78 122 -240zM234 344q0 -89 57 -125
t180 -36t179.5 36t56.5 125q0 90 -56.5 126t-179.5 36t-180 -36t-57 -126z" />
    <glyph glyph-name="yen" unicode="&#xa5;" horiz-adv-x="1098" 
d="M1035 800l-359 -426h266v-108h-303v-72h303v-108h-303v-186h-180v186h-301v108h301v72h-301v108h264l-359 426h219l267 -319l267 319h219z" />
    <glyph glyph-name="brokenbar" unicode="&#xa6;" horiz-adv-x="297" 
d="M63 720h171v-345h-171v345zM63 195h171v-345h-171v345z" />
    <glyph glyph-name="section" unicode="&#xa7;" horiz-adv-x="882" 
d="M735 194q84 -49 84 -152q0 -49 -20 -86t-52.5 -59t-81.5 -35.5t-99 -18t-114 -4.5q-87 0 -154 11t-119.5 35.5t-80.5 68.5t-28 106h171q0 -57 51 -76t176 -19q102 0 141 15t39 58q0 46 -38.5 60.5t-184.5 25.5q-192 13 -266 54.5t-74 125.5q0 74 63 152q-85 50 -85 151
q0 49 20 86t52.5 59t81.5 35.5t99 18t114 4.5q88 0 154.5 -11t119.5 -35.5t81 -68.5t28 -106h-172q0 57 -50.5 76t-176.5 19q-102 0 -141 -15t-39 -58q0 -46 38.5 -61t184.5 -26q193 -15 266.5 -55t73.5 -123q0 -74 -62 -152zM271 413q-30 -44 -35 -72t20 -44.5t64.5 -24.5
t113.5 -14q107 -8 177 -22q31 44 35.5 72t-20.5 44.5t-64.5 24t-113.5 13.5q-108 8 -177 23z" />
    <glyph glyph-name="dieresis" unicode="&#xa8;" horiz-adv-x="563" 
d="M63 833h177v-146h-177v146zM323 833h177v-146h-177v146z" />
    <glyph glyph-name="copyright" unicode="&#xa9;" horiz-adv-x="1131" 
d="M566 -110q-238 0 -370.5 129.5t-132.5 331.5t132.5 330.5t370.5 128.5q239 0 370.5 -128.5t131.5 -330.5q0 -98 -32.5 -181.5t-94.5 -146t-158.5 -98t-216.5 -35.5zM566 -1q182 0 287.5 92t105.5 260t-105.5 259t-287.5 91t-288.5 -91t-106.5 -259t106.5 -260t288.5 -92z
M276 350q0 221 291 221q269 0 289 -189h-144q-15 71 -145 71q-69 0 -109 -21.5t-40 -81.5t40 -81.5t109 -21.5q130 0 145 71h144q-20 -189 -289 -189q-291 0 -291 221z" />
    <glyph glyph-name="guillemotleft" unicode="&#xab;" horiz-adv-x="943" 
d="M303 589h233l-260 -295l260 -294h-233l-260 294zM667 589h233l-260 -295l260 -294h-233l-260 294z" />
    <glyph glyph-name="logicalnot" unicode="&#xac;" horiz-adv-x="926" 
d="M863 411v-338h-172v196h-628v142h800z" />
    <glyph glyph-name="registered" unicode="&#xae;" horiz-adv-x="798" 
d="M399 810q164 0 250 -82.5t86 -219.5t-86 -219.5t-250 -82.5t-250 82.5t-86 219.5t86 219.5t250 82.5zM399 286q120 0 188 56t68 166t-68 166t-188 56q-121 0 -188.5 -56t-67.5 -166t67.5 -166t188.5 -56zM568 543q0 -66 -57 -89l49 -79h-81l-43 71h-110v-71h-68v265h209
q45 0 73 -26.5t28 -70.5zM326 583v-80h122q11 0 17 1t15.5 4t14.5 12t5 23t-5 23t-14.5 12t-15.5 4t-17 1h-122z" />
    <glyph glyph-name="macron" unicode="&#xaf;" horiz-adv-x="595" 
d="M63 799h469v-118h-469v118z" />
    <glyph glyph-name="degree" unicode="&#xb0;" horiz-adv-x="737" 
d="M368 259q-154 0 -229.5 76.5t-75.5 199.5q0 122 75.5 198.5t229.5 76.5t230 -76.5t76 -198.5q0 -123 -75.5 -199.5t-230.5 -76.5zM368 402q66 0 100 31t34 102t-34 101.5t-100 30.5t-100 -30.5t-34 -101.5q0 -133 134 -133z" />
    <glyph glyph-name="plusminus" unicode="&#xb1;" horiz-adv-x="926" 
d="M540 541h323v-142h-323v-159h-171v159h-306v142h306v159h171v-159zM63 29v142h800v-142h-800z" />
    <glyph glyph-name="acute" unicode="&#xb4;" horiz-adv-x="515" 
d="M63 789l389 80v-118l-389 -80v118z" />
    <glyph glyph-name="paragraph" unicode="&#xb6;" horiz-adv-x="926" 
d="M396 720h172v-870h-172v464q-46 0 -77.5 1t-69.5 5.5t-63 13t-50.5 23.5t-40 36t-23.5 52.5t-9 71.5q0 47 11 81.5t34.5 56.5t50 35.5t69 19.5t78 8t90.5 2zM692 720h171v-870h-171v870z" />
    <glyph glyph-name="periodcentered" unicode="&#xb7;" horiz-adv-x="257" 
d="M43 381h171v-134h-171v134z" />
    <glyph glyph-name="cedilla" unicode="&#xb8;" horiz-adv-x="442" 
d="M202 -47q25 8 53.5 10.5t57.5 -1.5t47.5 -24t18.5 -54q0 -41 -27.5 -68.5t-72.5 -38.5t-101.5 -13.5t-114.5 6.5v85q187 -27 187 38q0 38 -104 14l-59 58l14 35h116z" />
    <glyph glyph-name="guillemotright" unicode="&#xbb;" horiz-adv-x="966" 
d="M299 589l260 -295l-260 -294h-233l260 294l-260 295h233zM663 589l260 -295l-260 -294h-233l260 294l-260 295h233z" />
    <glyph glyph-name="questiondown" unicode="&#xbf;" horiz-adv-x="840" 
d="M553 466h-171v134h171v-134zM382 383h171q0 -47 -18 -80.5t-47.5 -51.5t-64.5 -30t-70 -20t-64.5 -17.5t-47.5 -26.5t-18 -43q0 -73 177 -73q116 0 166.5 25.5t50.5 97.5h180q0 -81 -28 -136t-83 -84.5t-120.5 -41.5t-155.5 -12q-179 0 -273 47.5t-94 156.5q0 50 24 86.5
t60 54.5t79 34t80.5 28t64.5 33.5t31 52.5z" />
    <glyph glyph-name="Agrave" unicode="&#xc0;" horiz-adv-x="1032" 
d="M710 900v-118l-389 80v118zM800 0l-75 149h-419l-75 -149h-198l361 700h243l362 -700h-199zM373 283h285l-142 284z" />
    <glyph glyph-name="Aacute" unicode="&#xc1;" horiz-adv-x="1032" 
d="M710 980v-118l-389 -80v118zM800 0l-75 149h-419l-75 -149h-198l361 700h243l362 -700h-199zM373 283h285l-142 284z" />
    <glyph glyph-name="Acircumflex" unicode="&#xc2;" horiz-adv-x="1032" 
d="M723 782l-207 80l-207 -80v118l207 80l207 -80v-118zM800 0l-75 149h-419l-75 -149h-198l361 700h243l362 -700h-199zM373 283h285l-142 284z" />
    <glyph glyph-name="Atilde" unicode="&#xc3;" horiz-adv-x="1032" 
d="M427 870q-30 0 -42.5 -22t-12.5 -67h-146q0 91 38.5 150.5t118.5 59.5q38 0 71 -15.5t52.5 -34t45.5 -34t52 -15.5q31 0 43.5 22t12.5 67h146q0 -91 -39 -150.5t-118 -59.5q-39 0 -72 15.5t-52.5 34t-45.5 34t-52 15.5zM800 0l-75 149h-419l-75 -149h-198l361 700h243
l362 -700h-199zM373 283h285l-142 284z" />
    <glyph glyph-name="Adieresis" unicode="&#xc4;" horiz-adv-x="1032" 
d="M475 944v-146h-177v146h177zM735 944v-146h-177v146h177zM800 0l-75 149h-419l-75 -149h-198l361 700h243l362 -700h-199zM373 283h285l-142 284z" />
    <glyph glyph-name="Aring" unicode="&#xc5;" horiz-adv-x="1032" 
d="M516 771q-113 0 -161.5 33.5t-48.5 98.5t48.5 98.5t161.5 33.5t161.5 -33.5t48.5 -98.5t-48.5 -98.5t-161.5 -33.5zM516 956q-102 0 -102 -53t102 -53q51 0 76 12t25 41t-25 41t-76 12zM800 0l-75 149h-419l-75 -149h-198l361 700h243l362 -700h-199zM373 283h285
l-142 284z" />
    <glyph glyph-name="AE" unicode="&#xc6;" horiz-adv-x="1403" 
d="M1370 557h-560v-142h560v-130h-560v-142h560v-143h-740v148h-325l-71 -148h-201l341 700h996v-143zM630 561h-127l-133 -278h260v278z" />
    <glyph glyph-name="Ccedilla" unicode="&#xc7;" horiz-adv-x="943" 
d="M473 141q115 0 178.5 38t75.5 121h183q-26 -289 -381 -308l-12 -39q25 8 53.5 10.5t57.5 -1.5t47.5 -24t18.5 -54q0 -41 -27.5 -68.5t-72.5 -38.5t-101.5 -13.5t-114.5 6.5v85q187 -27 187 38q0 38 -104 14l-59 58l11 27q-195 12 -287.5 102.5t-92.5 256.5
q0 178 106.5 268.5t333.5 90.5q410 0 437 -308h-183q-12 83 -75 120t-179 37q-136 0 -198 -50t-62 -158q0 -109 62 -159.5t198 -50.5z" />
    <glyph glyph-name="Egrave" unicode="&#xc8;" horiz-adv-x="816" 
d="M607 900v-118l-389 80v118zM783 557h-560v-142h560v-130h-560v-142h560v-143h-740v700h740v-143z" />
    <glyph glyph-name="Eacute" unicode="&#xc9;" horiz-adv-x="816" 
d="M607 980v-118l-389 -80v118zM783 557h-560v-142h560v-130h-560v-142h560v-143h-740v700h740v-143z" />
    <glyph glyph-name="Ecircumflex" unicode="&#xca;" horiz-adv-x="816" 
d="M620 782l-207 80l-207 -80v118l207 80l207 -80v-118zM783 557h-560v-142h560v-130h-560v-142h560v-143h-740v700h740v-143z" />
    <glyph glyph-name="Edieresis" unicode="&#xcb;" horiz-adv-x="816" 
d="M372 944v-146h-177v146h177zM632 944v-146h-177v146h177zM783 557h-560v-142h560v-130h-560v-142h560v-143h-740v700h740v-143z" />
    <glyph glyph-name="Igrave" unicode="&#xcc;" horiz-adv-x="266" 
d="M327 900v-118l-389 80v118zM223 700v-700h-180v700h180z" />
    <glyph glyph-name="Iacute" unicode="&#xcd;" horiz-adv-x="266" 
d="M-62 900l389 80v-118l-389 -80v118zM223 700v-700h-180v700h180z" />
    <glyph glyph-name="Icircumflex" unicode="&#xce;" horiz-adv-x="266" 
d="M133 980l207 -80v-118l-207 80l-207 -80v118zM43 0v700h180v-700h-180z" />
    <glyph glyph-name="Idieresis" unicode="&#xcf;" horiz-adv-x="266" 
d="M-85 944h177v-146h-177v146zM175 944h177v-146h-177v146zM223 700v-700h-180v700h180z" />
    <glyph glyph-name="Eth" unicode="&#xd0;" horiz-adv-x="1001" 
d="M624 700q69 0 129.5 -21.5t108 -63.5t75 -110.5t27.5 -154.5t-27.5 -154.5t-75 -110.5t-108 -63.5t-129.5 -21.5h-508v291h-73v118h73v291h508zM556 151q56 0 94 7.5t70.5 28t48 61t15.5 102.5t-15.5 102.5t-48 61t-70.5 28t-94 7.5h-260v-140h227v-118h-227v-140h260z
" />
    <glyph glyph-name="Ntilde" unicode="&#xd1;" horiz-adv-x="988" 
d="M405 870q-30 0 -42.5 -22t-12.5 -67h-146q0 91 38.5 150.5t118.5 59.5q38 0 71 -15.5t52.5 -34t45.5 -34t52 -15.5q31 0 43.5 22t12.5 67h146q0 -91 -39 -150.5t-118 -59.5q-39 0 -72 15.5t-52.5 34t-45.5 34t-52 15.5zM765 700h180v-700h-245l-477 525v-525h-180v700
h244l478 -526v526z" />
    <glyph glyph-name="Ograve" unicode="&#xd2;" horiz-adv-x="946" 
d="M667 900v-118l-389 80v118zM473 -10q-227 0 -333.5 91t-106.5 270q0 178 106.5 268.5t333.5 90.5q440 0 440 -359q0 -361 -440 -361zM473 141q138 0 199 50.5t61 159.5q0 108 -60.5 158t-199.5 50t-199.5 -49.5t-60.5 -158.5t60.5 -159.5t199.5 -50.5z" />
    <glyph glyph-name="Oacute" unicode="&#xd3;" horiz-adv-x="946" 
d="M278 900l389 80v-118l-389 -80v118zM473 -10q-227 0 -333.5 91t-106.5 270q0 178 106.5 268.5t333.5 90.5q440 0 440 -359q0 -361 -440 -361zM473 141q138 0 199 50.5t61 159.5q0 108 -60.5 158t-199.5 50t-199.5 -49.5t-60.5 -158.5t60.5 -159.5t199.5 -50.5z" />
    <glyph glyph-name="Ocircumflex" unicode="&#xd4;" horiz-adv-x="946" 
d="M680 782l-207 80l-207 -80v118l207 80l207 -80v-118zM473 710q440 0 440 -359q0 -361 -440 -361q-227 0 -333.5 91t-106.5 270q0 178 106.5 268.5t333.5 90.5zM473 141q138 0 199 50.5t61 159.5q0 108 -60.5 158t-199.5 50t-199.5 -49.5t-60.5 -158.5t60.5 -159.5
t199.5 -50.5z" />
    <glyph glyph-name="Otilde" unicode="&#xd5;" horiz-adv-x="946" 
d="M183 781q0 91 38.5 150.5t118.5 59.5q38 0 71 -15.5t52.5 -34t45.5 -34t52 -15.5q31 0 43.5 22t12.5 67h146q0 -91 -39 -150.5t-118 -59.5q-39 0 -72 15.5t-52.5 34t-45.5 34t-52 15.5q-30 0 -42.5 -22t-12.5 -67h-146zM473 -10q-227 0 -333.5 91t-106.5 270
q0 178 106.5 268.5t333.5 90.5q440 0 440 -359q0 -361 -440 -361zM473 141q138 0 199 50.5t61 159.5q0 108 -60.5 158t-199.5 50t-199.5 -49.5t-60.5 -158.5t60.5 -159.5t199.5 -50.5z" />
    <glyph glyph-name="Odieresis" unicode="&#xd6;" horiz-adv-x="946" 
d="M255 944h177v-146h-177v146zM515 944h177v-146h-177v146zM473 -10q-227 0 -333.5 91t-106.5 270q0 178 106.5 268.5t333.5 90.5q440 0 440 -359q0 -361 -440 -361zM473 141q138 0 199 50.5t61 159.5q0 108 -60.5 158t-199.5 50t-199.5 -49.5t-60.5 -158.5t60.5 -159.5
t199.5 -50.5z" />
    <glyph glyph-name="multiply" unicode="&#xd7;" horiz-adv-x="890" 
d="M827 474l-240 -138l240 -139l-71 -123l-311 180l-311 -180l-71 123l240 139l-240 138l71 123l311 -180l311 180z" />
    <glyph glyph-name="Oslash" unicode="&#xd8;" horiz-adv-x="946" 
d="M649 692q264 -62 264 -341q0 -361 -440 -361q-23 0 -33 1l-23 -76h-148l28 93q-264 62 -264 343q0 178 106.5 268.5t333.5 90.5q23 0 33 -1l23 76h148zM213 351q0 -156 128 -194l120 402q-133 -2 -190.5 -52t-57.5 -156zM485 141q132 2 190 52.5t58 157.5q0 78 -30.5 125
t-97.5 67z" />
    <glyph glyph-name="Ugrave" unicode="&#xd9;" horiz-adv-x="966" 
d="M677 900v-118l-389 80v118zM923 351q0 -184 -106 -272.5t-334 -88.5q-229 0 -334.5 88t-105.5 273v349h180v-349q0 -34 4.5 -60t20 -55.5t43 -49t76.5 -32.5t116 -13t116 13t76 32.5t43 49t20.5 55.5t4.5 60v349h180v-349z" />
    <glyph glyph-name="Uacute" unicode="&#xda;" horiz-adv-x="966" 
d="M288 900l389 80v-118l-389 -80v118zM923 351q0 -184 -106 -272.5t-334 -88.5q-229 0 -334.5 88t-105.5 273v349h180v-349q0 -34 4.5 -60t20 -55.5t43 -49t76.5 -32.5t116 -13t116 13t76 32.5t43 49t20.5 55.5t4.5 60v349h180v-349z" />
    <glyph glyph-name="Ucircumflex" unicode="&#xdb;" horiz-adv-x="966" 
d="M690 782l-207 80l-207 -80v118l207 80l207 -80v-118zM743 700h180v-349q0 -184 -106 -272.5t-334 -88.5q-229 0 -334.5 88t-105.5 273v349h180v-349q0 -34 4.5 -60t20 -55.5t43 -49t76.5 -32.5t116 -13t116 13t76 32.5t43 49t20.5 55.5t4.5 60v349z" />
    <glyph glyph-name="Udieresis" unicode="&#xdc;" horiz-adv-x="966" 
d="M265 944h177v-146h-177v146zM525 944h177v-146h-177v146zM923 351q0 -184 -106 -272.5t-334 -88.5q-229 0 -334.5 88t-105.5 273v349h180v-349q0 -34 4.5 -60t20 -55.5t43 -49t76.5 -32.5t116 -13t116 13t76 32.5t43 49t20.5 55.5t4.5 60v349h180v-349z" />
    <glyph glyph-name="Yacute" unicode="&#xdd;" horiz-adv-x="1038" 
d="M324 900l389 80v-118l-389 -80v118zM429 230l-396 470h217l269 -319l269 319h217l-396 -470v-230h-180v230z" />
    <glyph glyph-name="Thorn" unicode="&#xde;" horiz-adv-x="894" 
d="M593 608q120 0 194 -70.5t74 -186.5t-74 -186t-194 -70h-370v-95h-180v700h180v-92h370zM543 246q23 0 36 0.5t35 6t34.5 16t22.5 31.5t10 51t-10 51t-22.5 31.5t-34.5 16t-35 6t-36 0.5h-320v-210h320z" />
    <glyph glyph-name="germandbls" unicode="&#xdf;" horiz-adv-x="870" 
d="M668 390q84 -18 126.5 -62.5t42.5 -127.5q0 -36 -6.5 -63.5t-24 -48.5t-36.5 -35.5t-54.5 -24t-68 -15.5t-87 -8.5t-100.5 -3.5t-120 -1v143q204 0 264.5 13.5t60.5 64.5q0 18 -5 30t-20.5 21.5t-36.5 14.5t-61 8t-85 4t-117 1v109q129 0 172 14t43 66q0 78 -145 78
q-103 0 -149.5 -29t-46.5 -114v-424h-171v424q0 164 88.5 225t282.5 61q150 0 231.5 -44.5t81.5 -151.5q0 -73 -59 -124z" />
    <glyph glyph-name="agrave" unicode="&#xe0;" horiz-adv-x="874" 
d="M644 789v-118l-389 80v118zM443 599q192 0 289.5 -70t98.5 -232v-297h-172v73q-169 -83 -358 -83q-268 0 -268 186q0 55 28.5 95.5t79.5 63t112 32.5t135 10q147 0 271 -42q0 121 -224 121q-147 0 -292 -43l-61 125q188 61 361 61zM659 183v46q-114 36 -250 36
q-205 0 -205 -82q0 -43 34.5 -55t111.5 -12q69 0 155.5 19t153.5 48z" />
    <glyph glyph-name="aacute" unicode="&#xe1;" horiz-adv-x="874" 
d="M644 869v-118l-389 -80v118zM443 599q192 0 289.5 -70t98.5 -232v-297h-172v73q-169 -83 -358 -83q-268 0 -268 186q0 55 28.5 95.5t79.5 63t112 32.5t135 10q147 0 271 -42q0 121 -224 121q-147 0 -292 -43l-61 125q188 61 361 61zM659 183v46q-114 36 -250 36
q-205 0 -205 -82q0 -43 34.5 -55t111.5 -12q69 0 155.5 19t153.5 48z" />
    <glyph glyph-name="acircumflex" unicode="&#xe2;" horiz-adv-x="874" 
d="M657 671l-207 80l-207 -80v118l207 80l207 -80v-118zM443 599q192 0 289.5 -70t98.5 -232v-297h-172v73q-169 -83 -358 -83q-268 0 -268 186q0 55 28.5 95.5t79.5 63t112 32.5t135 10q147 0 271 -42q0 121 -224 121q-147 0 -292 -43l-61 125q188 61 361 61zM659 183v46
q-114 36 -250 36q-205 0 -205 -82q0 -43 34.5 -55t111.5 -12q69 0 155.5 19t153.5 48z" />
    <glyph glyph-name="atilde" unicode="&#xe3;" horiz-adv-x="874" 
d="M361 759q-30 0 -42.5 -22t-12.5 -67h-146q0 91 38.5 150.5t118.5 59.5q38 0 71 -15.5t52.5 -34t45.5 -34t52 -15.5q31 0 43.5 22t12.5 67h146q0 -91 -39 -150.5t-118 -59.5q-39 0 -72 15.5t-52.5 34t-45.5 34t-52 15.5zM443 599q192 0 289.5 -70t98.5 -232v-297h-172v73
q-169 -83 -358 -83q-268 0 -268 186q0 55 28.5 95.5t79.5 63t112 32.5t135 10q147 0 271 -42q0 121 -224 121q-147 0 -292 -43l-61 125q188 61 361 61zM659 183v46q-114 36 -250 36q-205 0 -205 -82q0 -43 34.5 -55t111.5 -12q69 0 155.5 19t153.5 48z" />
    <glyph glyph-name="adieresis" unicode="&#xe4;" horiz-adv-x="874" 
d="M409 833v-146h-177v146h177zM669 833v-146h-177v146h177zM443 599q192 0 289.5 -70t98.5 -232v-297h-172v73q-169 -83 -358 -83q-268 0 -268 186q0 55 28.5 95.5t79.5 63t112 32.5t135 10q147 0 271 -42q0 121 -224 121q-147 0 -292 -43l-61 125q188 61 361 61zM659 183
v46q-114 36 -250 36q-205 0 -205 -82q0 -43 34.5 -55t111.5 -12q69 0 155.5 19t153.5 48z" />
    <glyph glyph-name="aring" unicode="&#xe5;" horiz-adv-x="874" 
d="M450 660q-113 0 -161.5 33.5t-48.5 98.5t48.5 98.5t161.5 33.5t161.5 -33.5t48.5 -98.5t-48.5 -98.5t-161.5 -33.5zM450 845q-102 0 -102 -53t102 -53q51 0 76 12t25 41t-25 41t-76 12zM443 599q192 0 289.5 -70t98.5 -232v-297h-172v73q-169 -83 -358 -83
q-268 0 -268 186q0 55 28.5 95.5t79.5 63t112 32.5t135 10q147 0 271 -42q0 121 -224 121q-147 0 -292 -43l-61 125q188 61 361 61zM659 183v46q-114 36 -250 36q-205 0 -205 -82q0 -43 34.5 -55t111.5 -12q69 0 155.5 19t153.5 48z" />
    <glyph glyph-name="ae" unicode="&#xe6;" horiz-adv-x="1514" 
d="M1068 129q90 0 145.5 19t87.5 63h170q-29 -111 -132.5 -166t-270.5 -55q-234 0 -335 117q-75 -58 -189.5 -87.5t-228.5 -29.5q-282 0 -282 186q0 201 355 201q147 0 271 -42q0 121 -224 121q-147 0 -292 -43l-61 125q188 61 361 61q223 0 315 -92q104 92 320 92
q403 0 403 -345h-636q25 -125 223 -125zM1077 469q-95 0 -151 -23.5t-75 -82.5h447q-37 106 -221 106zM659 194v35q-114 36 -250 36q-106 0 -155.5 -16t-49.5 -62q0 -43 35.5 -57t110.5 -14q182 0 309 78z" />
    <glyph glyph-name="ccedilla" unicode="&#xe7;" horiz-adv-x="877" 
d="M441 133q98 0 154.5 23.5t73.5 78.5h175q-35 -223 -346 -243l-12 -39q25 8 53.5 10.5t57.5 -1.5t47.5 -24t18.5 -54q0 -41 -27.5 -68.5t-72.5 -38.5t-101.5 -13.5t-114.5 6.5v85q187 -27 187 38q0 38 -104 14l-59 58l11 27q-165 11 -257 85t-92 217q0 157 108 231t300 74
q172 0 277.5 -60t125.5 -185h-175q-17 55 -73.5 78.5t-154.5 23.5q-117 0 -177 -37t-60 -125q0 -87 60 -124t177 -37z" />
    <glyph glyph-name="egrave" unicode="&#xe8;" horiz-adv-x="877" 
d="M634 789v-118l-389 80v118zM431 129q90 0 145.5 19t87.5 63h170q-29 -111 -132.5 -166t-270.5 -55q-179 0 -288.5 75t-109.5 229q0 156 109.5 230.5t298.5 74.5q403 0 403 -345h-636q25 -125 223 -125zM440 469q-95 0 -151 -23.5t-75 -82.5h447q-37 106 -221 106z" />
    <glyph glyph-name="eacute" unicode="&#xe9;" horiz-adv-x="877" 
d="M634 869v-118l-389 -80v118zM431 129q90 0 145.5 19t87.5 63h170q-29 -111 -132.5 -166t-270.5 -55q-179 0 -288.5 75t-109.5 229q0 156 109.5 230.5t298.5 74.5q403 0 403 -345h-636q25 -125 223 -125zM440 469q-95 0 -151 -23.5t-75 -82.5h447q-37 106 -221 106z" />
    <glyph glyph-name="ecircumflex" unicode="&#xea;" horiz-adv-x="877" 
d="M647 671l-207 80l-207 -80v118l207 80l207 -80v-118zM431 129q90 0 145.5 19t87.5 63h170q-29 -111 -132.5 -166t-270.5 -55q-179 0 -288.5 75t-109.5 229q0 156 109.5 230.5t298.5 74.5q403 0 403 -345h-636q25 -125 223 -125zM440 469q-95 0 -151 -23.5t-75 -82.5h447
q-37 106 -221 106z" />
    <glyph glyph-name="edieresis" unicode="&#xeb;" horiz-adv-x="877" 
d="M399 833v-146h-177v146h177zM659 833v-146h-177v146h177zM431 129q90 0 145.5 19t87.5 63h170q-29 -111 -132.5 -166t-270.5 -55q-179 0 -288.5 75t-109.5 229q0 156 109.5 230.5t298.5 74.5q403 0 403 -345h-636q25 -125 223 -125zM440 469q-95 0 -151 -23.5t-75 -82.5
h447q-37 106 -221 106z" />
    <glyph glyph-name="igrave" unicode="&#xec;" horiz-adv-x="257" 
d="M323 789v-118l-389 80v118zM43 589h171v-589h-171v589z" />
    <glyph glyph-name="iacute" unicode="&#xed;" horiz-adv-x="257" 
d="M-66 789l389 80v-118l-389 -80v118zM43 589h171v-589h-171v589z" />
    <glyph glyph-name="icircumflex" unicode="&#xee;" horiz-adv-x="257" 
d="M129 869l207 -80v-118l-207 80l-207 -80v118zM43 0v589h171v-589h-171z" />
    <glyph glyph-name="idieresis" unicode="&#xef;" horiz-adv-x="257" 
d="M-89 833h177v-146h-177v146zM171 833h177v-146h-177v146zM43 589h171v-589h-171v589z" />
    <glyph glyph-name="eth" unicode="&#xf0;" horiz-adv-x="949" 
d="M725 771q181 -152 181 -385q0 -104 -39.5 -183t-107 -124t-149 -67t-175.5 -22q-392 0 -392 288q0 134 82 208t256 74q202 0 352 -145q-13 183 -176 284l-254 -109l-64 98l171 73q-73 22 -171 30l24 149q193 -11 348 -93l204 88l63 -98zM423 133q208 0 279 122
q-62 80 -145.5 121t-161.5 41q-87 0 -134 -31.5t-47 -107.5q0 -75 51 -110t158 -35z" />
    <glyph glyph-name="ntilde" unicode="&#xf1;" horiz-adv-x="905" 
d="M403 759q-30 0 -42.5 -22t-12.5 -67h-146q0 91 38.5 150.5t118.5 59.5q38 0 71 -15.5t52.5 -34t45.5 -34t52 -15.5q31 0 43.5 22t12.5 67h146q0 -91 -39 -150.5t-118 -59.5q-39 0 -72 15.5t-52.5 34t-45.5 34t-52 15.5zM557 599q303 0 306 -273l-2 -326h-172v261
q0 98 -40.5 144t-142.5 46q-83 0 -166.5 -36t-125.5 -85v-330h-171v589h171v-103q144 113 343 113z" />
    <glyph glyph-name="ograve" unicode="&#xf2;" horiz-adv-x="882" 
d="M635 789v-118l-389 80v118zM441 -10q-192 0 -300 74t-108 230q0 157 108 231t300 74q191 0 299.5 -74.5t108.5 -230.5t-108.5 -230t-299.5 -74zM441 133q123 0 179.5 36t56.5 125q0 90 -56.5 126t-179.5 36t-180 -36t-57 -126q0 -89 57 -125t180 -36z" />
    <glyph glyph-name="oacute" unicode="&#xf3;" horiz-adv-x="882" 
d="M246 789l389 80v-118l-389 -80v118zM441 -10q-192 0 -300 74t-108 230q0 157 108 231t300 74q191 0 299.5 -74.5t108.5 -230.5t-108.5 -230t-299.5 -74zM441 133q123 0 179.5 36t56.5 125q0 90 -56.5 126t-179.5 36t-180 -36t-57 -126q0 -89 57 -125t180 -36z" />
    <glyph glyph-name="ocircumflex" unicode="&#xf4;" horiz-adv-x="882" 
d="M648 671l-207 80l-207 -80v118l207 80l207 -80v-118zM441 599q191 0 299.5 -74.5t108.5 -230.5t-108.5 -230t-299.5 -74q-192 0 -300 74t-108 230q0 157 108 231t300 74zM441 133q123 0 179.5 36t56.5 125q0 90 -56.5 126t-179.5 36t-180 -36t-57 -126q0 -89 57 -125
t180 -36z" />
    <glyph glyph-name="otilde" unicode="&#xf5;" horiz-adv-x="882" 
d="M151 670q0 91 38.5 150.5t118.5 59.5q38 0 71 -15.5t52.5 -34t45.5 -34t52 -15.5q31 0 43.5 22t12.5 67h146q0 -91 -39 -150.5t-118 -59.5q-39 0 -72 15.5t-52.5 34t-45.5 34t-52 15.5q-30 0 -42.5 -22t-12.5 -67h-146zM441 -10q-192 0 -300 74t-108 230q0 157 108 231
t300 74q191 0 299.5 -74.5t108.5 -230.5t-108.5 -230t-299.5 -74zM441 133q123 0 179.5 36t56.5 125q0 90 -56.5 126t-179.5 36t-180 -36t-57 -126q0 -89 57 -125t180 -36z" />
    <glyph glyph-name="odieresis" unicode="&#xf6;" horiz-adv-x="882" 
d="M223 833h177v-146h-177v146zM483 833h177v-146h-177v146zM441 -10q-192 0 -300 74t-108 230q0 157 108 231t300 74q191 0 299.5 -74.5t108.5 -230.5t-108.5 -230t-299.5 -74zM441 133q123 0 179.5 36t56.5 125q0 90 -56.5 126t-179.5 36t-180 -36t-57 -126q0 -89 57 -125
t180 -36z" />
    <glyph glyph-name="divide" unicode="&#xf7;" horiz-adv-x="926" 
d="M377 634h171v-134h-171v134zM63 411h800v-142h-800v142zM377 180h171v-134h-171v134z" />
    <glyph glyph-name="oslash" unicode="&#xf8;" horiz-adv-x="882" 
d="M601 583q248 -55 248 -289q0 -156 -108.5 -230t-299.5 -74h-17l-39 -131h-148l44 147q-119 26 -183.5 97t-64.5 191q0 157 108 231t300 74h17l39 130h148zM204 294q0 -122 118 -150l93 312q-109 -4 -160 -40.5t-51 -121.5zM467 133q109 4 159.5 40.5t50.5 120.5
q0 64 -29 100.5t-88 50.5z" />
    <glyph glyph-name="ugrave" unicode="&#xf9;" horiz-adv-x="905" 
d="M646 789v-118l-389 80v118zM691 589h171v-589h-171v103q-144 -113 -343 -113q-303 0 -306 273l2 326h172v-261q0 -98 40.5 -144t142.5 -46q83 0 166.5 36t125.5 85v330z" />
    <glyph glyph-name="uacute" unicode="&#xfa;" horiz-adv-x="905" 
d="M646 869v-118l-389 -80v118zM691 589h171v-589h-171v103q-144 -113 -343 -113q-303 0 -306 273l2 326h172v-261q0 -98 40.5 -144t142.5 -46q83 0 166.5 36t125.5 85v330z" />
    <glyph glyph-name="ucircumflex" unicode="&#xfb;" horiz-adv-x="905" 
d="M659 671l-207 80l-207 -80v118l207 80l207 -80v-118zM691 589h171v-589h-171v103q-144 -113 -343 -113q-303 0 -306 273l2 326h172v-261q0 -98 40.5 -144t142.5 -46q83 0 166.5 36t125.5 85v330z" />
    <glyph glyph-name="udieresis" unicode="&#xfc;" horiz-adv-x="905" 
d="M411 833v-146h-177v146h177zM671 833v-146h-177v146h177zM691 589h171v-589h-171v103q-144 -113 -343 -113q-303 0 -306 273l2 326h172v-261q0 -98 40.5 -144t142.5 -46q83 0 166.5 36t125.5 85v330z" />
    <glyph glyph-name="yacute" unicode="&#xfd;" horiz-adv-x="927" 
d="M658 869v-118l-389 -80v118zM705 589h189l-398 -839h-189l119 250h-88l-305 589h190l252 -486z" />
    <glyph glyph-name="thorn" unicode="&#xfe;" horiz-adv-x="896" 
d="M511 599q71 0 129.5 -15t109.5 -48t80 -95t29 -147t-29 -146.5t-80 -94.5t-110 -48t-129 -15q-205 0 -297 109v-282h-171v983h171v-310q93 109 297 109zM451 133q123 0 179.5 39t56.5 122q0 84 -56.5 123t-179.5 39t-180 -39.5t-57 -122.5t57 -122t180 -39z" />
    <glyph glyph-name="ydieresis" unicode="&#xff;" horiz-adv-x="927" 
d="M423 833v-146h-177v146h177zM683 833v-146h-177v146h177zM705 589h189l-398 -839h-189l119 250h-88l-305 589h190l252 -486z" />
    <glyph glyph-name="Amacron" unicode="&#x100;" horiz-adv-x="1032" 
d="M750 910v-118h-469v118h469zM800 0l-75 149h-419l-75 -149h-198l361 700h243l362 -700h-199zM373 283h285l-142 284z" />
    <glyph glyph-name="amacron" unicode="&#x101;" horiz-adv-x="874" 
d="M684 799v-118h-469v118h469zM443 599q192 0 289.5 -70t98.5 -232v-297h-172v73q-169 -83 -358 -83q-268 0 -268 186q0 55 28.5 95.5t79.5 63t112 32.5t135 10q147 0 271 -42q0 121 -224 121q-147 0 -292 -43l-61 125q188 61 361 61zM659 183v46q-114 36 -250 36
q-205 0 -205 -82q0 -43 34.5 -55t111.5 -12q69 0 155.5 19t153.5 48z" />
    <glyph glyph-name="Abreve" unicode="&#x102;" horiz-adv-x="1032" 
d="M516 767q-50 0 -88.5 9.5t-71 32t-50 66t-17.5 106.5h108q0 -111 119 -111q118 0 118 111h109q0 -63 -17.5 -106.5t-50 -66t-71 -32t-88.5 -9.5zM800 0l-75 149h-419l-75 -149h-198l361 700h243l362 -700h-199zM373 283h285l-142 284z" />
    <glyph glyph-name="abreve" unicode="&#x103;" horiz-adv-x="874" 
d="M450 656q-50 0 -88.5 9.5t-71 32t-50 66t-17.5 106.5h108q0 -111 119 -111q118 0 118 111h109q0 -63 -17.5 -106.5t-50 -66t-71 -32t-88.5 -9.5zM443 599q192 0 289.5 -70t98.5 -232v-297h-172v73q-169 -83 -358 -83q-268 0 -268 186q0 55 28.5 95.5t79.5 63t112 32.5
t135 10q147 0 271 -42q0 121 -224 121q-147 0 -292 -43l-61 125q188 61 361 61zM659 183v46q-114 36 -250 36q-205 0 -205 -82q0 -43 34.5 -55t111.5 -12q69 0 155.5 19t153.5 48z" />
    <glyph glyph-name="Aogonek" unicode="&#x104;" horiz-adv-x="1032" 
d="M881 -63q0 -33 39.5 -41.5t120.5 -8.5v-117q-152 0 -220 24t-68 93q0 61 80 113h-33l-75 149h-419l-75 -149h-198l361 700h243l362 -700h-71q-47 -38 -47 -63zM373 283h285l-142 284z" />
    <glyph glyph-name="aogonek" unicode="&#x105;" horiz-adv-x="874" 
d="M728 -63q0 -12 5.5 -21t18.5 -14.5t24.5 -8.5t34 -4t36 -1.5t41.5 -0.5v-117q-152 0 -220 24t-68 93q0 61 80 113h-21v73q-169 -83 -358 -83q-268 0 -268 186q0 55 28.5 95.5t79.5 63t112 32.5t135 10q147 0 271 -42q0 121 -224 121q-147 0 -292 -43l-61 125
q188 61 361 61q192 0 289.5 -70t98.5 -232v-297h-56q-47 -38 -47 -63zM659 183v46q-114 36 -250 36q-205 0 -205 -82q0 -43 34.5 -55t111.5 -12q69 0 155.5 19t153.5 48z" />
    <glyph glyph-name="Cacute" unicode="&#x106;" horiz-adv-x="943" 
d="M277 900l389 80v-118l-389 -80v118zM33 351q0 178 106.5 268.5t333.5 90.5q410 0 437 -308h-183q-12 83 -75 120t-179 37q-136 0 -198 -50t-62 -158q0 -109 62 -159.5t198 -50.5q115 0 178.5 38t75.5 121h183q-27 -310 -437 -310q-227 0 -333.5 91t-106.5 270z" />
    <glyph glyph-name="cacute" unicode="&#x107;" horiz-adv-x="877" 
d="M246 789l389 80v-118l-389 -80v118zM33 294q0 157 108 231t300 74q172 0 277.5 -60t125.5 -185h-175q-17 55 -73.5 78.5t-154.5 23.5q-117 0 -177 -37t-60 -125q0 -87 60 -124t177 -37q98 0 154.5 23.5t73.5 78.5h175q-20 -125 -125.5 -185t-277.5 -60q-192 0 -300 74
t-108 230z" />
    <glyph glyph-name="Cdotaccent" unicode="&#x10a;" horiz-adv-x="943" 
d="M375 944h194v-146h-194v146zM33 351q0 178 106.5 268.5t333.5 90.5q410 0 437 -308h-183q-12 83 -75 120t-179 37q-136 0 -198 -50t-62 -158q0 -109 62 -159.5t198 -50.5q115 0 178.5 38t75.5 121h183q-27 -310 -437 -310q-227 0 -333.5 91t-106.5 270z" />
    <glyph glyph-name="cdotaccent" unicode="&#x10b;" horiz-adv-x="877" 
d="M344 833h194v-146h-194v146zM33 294q0 157 108 231t300 74q172 0 277.5 -60t125.5 -185h-175q-17 55 -73.5 78.5t-154.5 23.5q-117 0 -177 -37t-60 -125q0 -87 60 -124t177 -37q98 0 154.5 23.5t73.5 78.5h175q-20 -125 -125.5 -185t-277.5 -60q-192 0 -300 74t-108 230z
" />
    <glyph glyph-name="Ccaron" unicode="&#x10c;" horiz-adv-x="943" 
d="M679 864l-207 -80l-207 80v118l207 -80l207 80v-118zM473 141q115 0 178.5 38t75.5 121h183q-27 -310 -437 -310q-227 0 -333.5 91t-106.5 270q0 178 106.5 268.5t333.5 90.5q410 0 437 -308h-183q-12 83 -75 120t-179 37q-136 0 -198 -50t-62 -158q0 -109 62 -159.5
t198 -50.5z" />
    <glyph glyph-name="ccaron" unicode="&#x10d;" horiz-adv-x="877" 
d="M648 753l-207 -80l-207 80v118l207 -80l207 80v-118zM441 133q98 0 154.5 23.5t73.5 78.5h175q-20 -125 -125.5 -185t-277.5 -60q-192 0 -300 74t-108 230q0 157 108 231t300 74q172 0 277.5 -60t125.5 -185h-175q-17 55 -73.5 78.5t-154.5 23.5q-117 0 -177 -37
t-60 -125q0 -87 60 -124t177 -37z" />
    <glyph glyph-name="Dcaron" unicode="&#x10e;" horiz-adv-x="924" 
d="M604 864l-207 -80l-207 80v118l207 -80l207 80v-118zM551 700q69 0 129.5 -21.5t108 -63.5t75 -110.5t27.5 -154.5t-27.5 -154.5t-75 -110.5t-108 -63.5t-129.5 -21.5h-508v700h508zM483 151q56 0 94 7.5t70.5 28t48 61t15.5 102.5t-15.5 102.5t-48 61t-70.5 28t-94 7.5
h-260v-398h260z" />
    <glyph glyph-name="dcaron" unicode="&#x10f;" horiz-adv-x="1113" 
d="M678 497v303h171v-800h-171v92q-97 -102 -294 -102q-74 0 -135 16.5t-110.5 51t-77.5 94.5t-28 142t28 142.5t77.5 95t110.5 51t135 16.5q197 0 294 -102zM899 800h171v-134l-81 -197h-82l51 197h-59v134zM441 133q118 0 177.5 38t59.5 123t-59.5 123.5t-177.5 38.5
t-177 -38t-59 -124q0 -85 59 -123t177 -38z" />
    <glyph glyph-name="Dcroat" unicode="&#x110;" horiz-adv-x="1001" 
d="M624 700q69 0 129.5 -21.5t108 -63.5t75 -110.5t27.5 -154.5t-27.5 -154.5t-75 -110.5t-108 -63.5t-129.5 -21.5h-508v291h-73v118h73v291h508zM556 151q56 0 94 7.5t70.5 28t48 61t15.5 102.5t-15.5 102.5t-48 61t-70.5 28t-94 7.5h-260v-140h227v-118h-227v-140h260z
" />
    <glyph glyph-name="dcroat" unicode="&#x111;" horiz-adv-x="942" 
d="M899 749v-118h-50v-631h-171v92q-97 -102 -294 -102q-74 0 -135 16.5t-110.5 51t-77.5 94.5t-28 142t28 142.5t77.5 95t110.5 51t135 16.5q197 0 294 -102v134h-259v118h259v51h171v-51h50zM441 133q118 0 177.5 38t59.5 123t-59.5 123.5t-177.5 38.5t-177 -38t-59 -124
q0 -85 59 -123t177 -38z" />
    <glyph glyph-name="Emacron" unicode="&#x112;" horiz-adv-x="816" 
d="M647 910v-118h-469v118h469zM783 557h-560v-142h560v-130h-560v-142h560v-143h-740v700h740v-143z" />
    <glyph glyph-name="emacron" unicode="&#x113;" horiz-adv-x="877" 
d="M674 799v-118h-469v118h469zM431 129q90 0 145.5 19t87.5 63h170q-29 -111 -132.5 -166t-270.5 -55q-179 0 -288.5 75t-109.5 229q0 156 109.5 230.5t298.5 74.5q403 0 403 -345h-636q25 -125 223 -125zM440 469q-95 0 -151 -23.5t-75 -82.5h447q-37 106 -221 106z" />
    <glyph glyph-name="Edotaccent" unicode="&#x116;" horiz-adv-x="816" 
d="M510 944v-146h-194v146h194zM783 557h-560v-142h560v-130h-560v-142h560v-143h-740v700h740v-143z" />
    <glyph glyph-name="edotaccent" unicode="&#x117;" horiz-adv-x="877" 
d="M537 833v-146h-194v146h194zM431 129q90 0 145.5 19t87.5 63h170q-29 -111 -132.5 -166t-270.5 -55q-179 0 -288.5 75t-109.5 229q0 156 109.5 230.5t298.5 74.5q403 0 403 -345h-636q25 -125 223 -125zM440 469q-95 0 -151 -23.5t-75 -82.5h447q-37 106 -221 106z" />
    <glyph glyph-name="Eogonek" unicode="&#x118;" horiz-adv-x="816" 
d="M646 -63q0 -12 5.5 -21t18.5 -14.5t24.5 -8.5t34 -4t36 -1.5t41.5 -0.5v-117q-152 0 -220 24t-68 93q0 61 80 113h-555v700h740v-143h-560v-142h560v-130h-560v-142h560v-143h-90q-47 -38 -47 -63z" />
    <glyph glyph-name="eogonek" unicode="&#x119;" horiz-adv-x="877" 
d="M431 129q90 0 145.5 19t87.5 63h170q-45 -176 -279 -212q-46 -37 -46 -62q0 -33 39.5 -41.5t120.5 -8.5v-117q-152 0 -220 24t-68 93q0 55 65 103h-15q-179 0 -288.5 75t-109.5 229q0 156 109.5 230.5t298.5 74.5q403 0 403 -345h-636q25 -125 223 -125zM440 469
q-95 0 -151 -23.5t-75 -82.5h447q-37 106 -221 106z" />
    <glyph glyph-name="Ecaron" unicode="&#x11a;" horiz-adv-x="816" 
d="M620 864l-207 -80l-207 80v118l207 -80l207 80v-118zM783 557h-560v-142h560v-130h-560v-142h560v-143h-740v700h740v-143z" />
    <glyph glyph-name="ecaron" unicode="&#x11b;" horiz-adv-x="877" 
d="M647 753l-207 -80l-207 80v118l207 -80l207 80v-118zM431 129q90 0 145.5 19t87.5 63h170q-29 -111 -132.5 -166t-270.5 -55q-179 0 -288.5 75t-109.5 229q0 156 109.5 230.5t298.5 74.5q403 0 403 -345h-636q25 -125 223 -125zM440 469q-95 0 -151 -23.5t-75 -82.5h447
q-37 106 -221 106z" />
    <glyph glyph-name="Gbreve" unicode="&#x11e;" horiz-adv-x="943" 
d="M472 767q-50 0 -88.5 9.5t-71 32t-50 66t-17.5 106.5h108q0 -111 119 -111q118 0 118 111h109q0 -63 -17.5 -106.5t-50 -66t-71 -32t-88.5 -9.5zM466 258v117h444v-375h-133l-8 110q-110 -120 -320 -120q-195 0 -305.5 94t-110.5 266q0 174 115 267t331 93
q205 0 314 -74.5t117 -208.5h-183q-4 23 -17 43.5t-39 42t-75.5 34t-116.5 12.5t-117 -14.5t-78 -36t-44.5 -52t-21.5 -56t-5 -54.5t5 -55.5t22 -57.5t44.5 -52.5t77.5 -36.5t117 -15q119 0 181.5 40.5t66.5 88.5h-261z" />
    <glyph glyph-name="gbreve" unicode="&#x11f;" horiz-adv-x="892" 
d="M441 656q-50 0 -88.5 9.5t-71 32t-50 66t-17.5 106.5h108q0 -111 119 -111q118 0 118 111h109q0 -63 -17.5 -106.5t-50 -66t-71 -32t-88.5 -9.5zM677 589h172v-495q0 -173 -104 -258.5t-280 -85.5q-190 0 -369 47v138q3 -1 38 -7.5t50.5 -9.5t52.5 -8.5t63 -8.5t61 -5.5
t66 -2.5q131 0 188 52t62 167q-95 -105 -298 -105q-159 0 -252.5 73t-93.5 223t93.5 223t252.5 73q204 0 298 -105v95zM441 150q122 0 179 36.5t57 116.5t-57 116.5t-179 36.5t-179.5 -36.5t-57.5 -116.5t57.5 -116.5t179.5 -36.5z" />
    <glyph glyph-name="Gdotaccent" unicode="&#x120;" horiz-adv-x="943" 
d="M569 944v-146h-194v146h194zM466 258v117h444v-375h-133l-8 110q-110 -120 -320 -120q-195 0 -305.5 94t-110.5 266q0 174 115 267t331 93q205 0 314 -74.5t117 -208.5h-183q-4 23 -17 43.5t-39 42t-75.5 34t-116.5 12.5t-117 -14.5t-78 -36t-44.5 -52t-21.5 -56
t-5 -54.5t5 -55.5t22 -57.5t44.5 -52.5t77.5 -36.5t117 -15q119 0 181.5 40.5t66.5 88.5h-261z" />
    <glyph glyph-name="gdotaccent" unicode="&#x121;" horiz-adv-x="892" 
d="M538 833v-146h-194v146h194zM677 589h172v-495q0 -173 -104 -258.5t-280 -85.5q-190 0 -369 47v138q3 -1 38 -7.5t50.5 -9.5t52.5 -8.5t63 -8.5t61 -5.5t66 -2.5q131 0 188 52t62 167q-95 -105 -298 -105q-159 0 -252.5 73t-93.5 223t93.5 223t252.5 73q204 0 298 -105
v95zM441 150q122 0 179 36.5t57 116.5t-57 116.5t-179 36.5t-179.5 -36.5t-57.5 -116.5t57.5 -116.5t179.5 -36.5z" />
    <glyph glyph-name="Gcommaaccent" unicode="&#x122;" horiz-adv-x="943" 
d="M466 258v117h444v-375h-133l-8 110q-110 -120 -320 -120q-195 0 -305.5 94t-110.5 266q0 174 115 267t331 93q205 0 314 -74.5t117 -208.5h-183q-4 23 -17 43.5t-39 42t-75.5 34t-116.5 12.5t-117 -14.5t-78 -36t-44.5 -52t-21.5 -56t-5 -54.5t5 -55.5t22 -57.5
t44.5 -52.5t77.5 -36.5t117 -15q119 0 181.5 40.5t66.5 88.5h-261zM395 -225v108h154v-108l-80 -110h-74l56 110h-56z" />
    <glyph glyph-name="gcommaaccent" unicode="&#x123;" horiz-adv-x="892" 
d="M518 814v-108h-154v108l80 110h74l-56 -110h56zM677 589h172v-495q0 -173 -104 -258.5t-280 -85.5q-190 0 -369 47v138q3 -1 38 -7.5t50.5 -9.5t52.5 -8.5t63 -8.5t61 -5.5t66 -2.5q131 0 188 52t62 167q-95 -105 -298 -105q-159 0 -252.5 73t-93.5 223t93.5 223
t252.5 73q204 0 298 -105v95zM441 150q122 0 179 36.5t57 116.5t-57 116.5t-179 36.5t-179.5 -36.5t-57.5 -116.5t57.5 -116.5t179.5 -36.5z" />
    <glyph glyph-name="Hbar" unicode="&#x126;" horiz-adv-x="1016" 
d="M1008 629v-118h-35v-511h-180v274h-570v-274h-180v511h-35v118h35v71h180v-71h570v71h180v-71h35zM793 426v85h-570v-85h570z" />
    <glyph glyph-name="hbar" unicode="&#x127;" horiz-adv-x="963" 
d="M614 599q303 0 306 -273l-2 -326h-172v261q0 98 -40.5 144t-142.5 46q-83 0 -166.5 -36t-125.5 -85v-330h-171v637h-57v118h57v45h171v-45h252v-118h-252v-151q144 113 343 113z" />
    <glyph glyph-name="Imacron" unicode="&#x12a;" horiz-adv-x="266" 
d="M-102 910h469v-118h-469v118zM223 700v-700h-180v700h180z" />
    <glyph glyph-name="imacron" unicode="&#x12b;" horiz-adv-x="257" 
d="M-106 799h469v-118h-469v118zM43 589h171v-589h-171v589z" />
    <glyph glyph-name="Iogonek" unicode="&#x12e;" horiz-adv-x="266" 
d="M155 -63q0 -33 39.5 -41.5t120.5 -8.5v-117q-152 0 -220 24t-68 93q0 61 80 113h-64v700h180v-700h-21q-47 -38 -47 -63z" />
    <glyph glyph-name="iogonek" unicode="&#x12f;" horiz-adv-x="257" 
d="M226 833v-146h-194v146h194zM144 -63q0 -12 5.5 -21t18.5 -14.5t24.5 -8.5t34 -4t36 -1.5t41.5 -0.5v-117q-152 0 -220 24t-68 93q0 61 80 113h-53v589h171v-589h-23q-47 -38 -47 -63z" />
    <glyph glyph-name="Idotaccent" unicode="&#x130;" horiz-adv-x="266" 
d="M36 944h194v-146h-194v146zM223 700v-700h-180v700h180z" />
    <glyph glyph-name="dotlessi" unicode="&#x131;" horiz-adv-x="257" 
d="M43 589h171v-589h-171v589z" />
    <glyph glyph-name="Kcommaaccent" unicode="&#x136;" horiz-adv-x="1028" 
d="M995 700l-424 -311l424 -389h-249l-308 291l-215 -157v-134h-180v700h180v-363l499 363h273zM442 -225v108h154v-108l-80 -110h-74l56 110h-56z" />
    <glyph glyph-name="kcommaaccent" unicode="&#x137;" horiz-adv-x="968" 
d="M935 589l-382 -241l382 -348h-238l-282 257l-201 -121v-136h-171v800h171v-476l429 265h292zM362 -225v108h154v-108l-80 -110h-74l56 110h-56z" />
    <glyph glyph-name="Lacute" unicode="&#x139;" horiz-adv-x="796" 
d="M432 980v-118l-389 -80v118zM223 151h540v-151h-720v700h180v-549z" />
    <glyph glyph-name="lacute" unicode="&#x13a;" horiz-adv-x="257" 
d="M-66 1000l389 80v-118l-389 -80v118zM43 800h171v-800h-171v800z" />
    <glyph glyph-name="Lcommaaccent" unicode="&#x13b;" horiz-adv-x="796" 
d="M223 151h540v-151h-720v700h180v-549zM326 -225v108h154v-108l-80 -110h-74l56 110h-56z" />
    <glyph glyph-name="lcommaaccent" unicode="&#x13c;" horiz-adv-x="257" 
d="M43 800h171v-800h-171v800zM52 -117h154v-108l-80 -110h-74l56 110h-56v108z" />
    <glyph glyph-name="Lcaron" unicode="&#x13d;" horiz-adv-x="796" 
d="M445 864l-207 -80l-207 80v118l207 -80l207 80v-118zM223 151h540v-151h-720v700h180v-549z" />
    <glyph glyph-name="lcaron" unicode="&#x13e;" horiz-adv-x="257" 
d="M129 1002l207 80v-118l-207 -80l-207 80v118zM43 0v800h171v-800h-171z" />
    <glyph glyph-name="Lslash" unicode="&#x141;" horiz-adv-x="889" 
d="M306 151h540v-151h-720v250l-83 -34v146l83 34v304h180v-230l259 107v-146l-259 -107v-173z" />
    <glyph glyph-name="lslash" unicode="&#x142;" horiz-adv-x="608" 
d="M565 621v-146l-187 -77v-398h-171v328l-164 -68v146l164 68v326h171v-256z" />
    <glyph glyph-name="Nacute" unicode="&#x143;" horiz-adv-x="988" 
d="M688 980v-118l-389 -80v118zM765 700h180v-700h-245l-477 525v-525h-180v700h244l478 -526v526z" />
    <glyph glyph-name="nacute" unicode="&#x144;" horiz-adv-x="905" 
d="M686 869v-118l-389 -80v118zM557 599q303 0 306 -273l-2 -326h-172v261q0 98 -40.5 144t-142.5 46q-83 0 -166.5 -36t-125.5 -85v-330h-171v589h171v-103q144 113 343 113z" />
    <glyph glyph-name="Ncommaaccent" unicode="&#x145;" horiz-adv-x="988" 
d="M765 700h180v-700h-245l-477 525v-525h-180v700h244l478 -526v526zM417 -225v108h154v-108l-80 -110h-74l56 110h-56z" />
    <glyph glyph-name="ncommaaccent" unicode="&#x146;" horiz-adv-x="905" 
d="M557 599q303 0 306 -273l-2 -326h-172v261q0 98 -40.5 144t-142.5 46q-83 0 -166.5 -36t-125.5 -85v-330h-171v589h171v-103q144 113 343 113zM375 -225v108h154v-108l-80 -110h-74l56 110h-56z" />
    <glyph glyph-name="Ncaron" unicode="&#x147;" horiz-adv-x="988" 
d="M701 864l-207 -80l-207 80v118l207 -80l207 80v-118zM765 700h180v-700h-245l-477 525v-525h-180v700h244l478 -526v526z" />
    <glyph glyph-name="ncaron" unicode="&#x148;" horiz-adv-x="905" 
d="M699 753l-207 -80l-207 80v118l207 -80l207 80v-118zM557 599q303 0 306 -273l-2 -326h-172v261q0 98 -40.5 144t-142.5 46q-83 0 -166.5 -36t-125.5 -85v-330h-171v589h171v-103q144 113 343 113z" />
    <glyph glyph-name="Eng" unicode="&#x14a;" horiz-adv-x="988" 
d="M765 700h180v-700q0 -133 -67 -201.5t-211 -68.5q-91 0 -177 21v138q78 -16 147 -16q75 0 101.5 31t26.5 96h-65l-477 525v-525h-180v700h244l478 -526v526z" />
    <glyph glyph-name="eng" unicode="&#x14b;" horiz-adv-x="905" 
d="M557 599q303 0 306 -273l-2 -326q0 -132 -66.5 -195.5t-211.5 -63.5q-91 0 -177 15v133q82 -10 113 -10q95 0 132.5 24t37.5 97v261q0 98 -40.5 144t-142.5 46q-83 0 -166.5 -36t-125.5 -85v-330h-171v589h171v-103q144 113 343 113z" />
    <glyph glyph-name="Omacron" unicode="&#x14c;" horiz-adv-x="946" 
d="M238 910h469v-118h-469v118zM473 -10q-227 0 -333.5 91t-106.5 270q0 178 106.5 268.5t333.5 90.5q440 0 440 -359q0 -361 -440 -361zM473 141q138 0 199 50.5t61 159.5q0 108 -60.5 158t-199.5 50t-199.5 -49.5t-60.5 -158.5t60.5 -159.5t199.5 -50.5z" />
    <glyph glyph-name="omacron" unicode="&#x14d;" horiz-adv-x="882" 
d="M206 799h469v-118h-469v118zM441 -10q-192 0 -300 74t-108 230q0 157 108 231t300 74q191 0 299.5 -74.5t108.5 -230.5t-108.5 -230t-299.5 -74zM441 133q123 0 179.5 36t56.5 125q0 90 -56.5 126t-179.5 36t-180 -36t-57 -126q0 -89 57 -125t180 -36z" />
    <glyph glyph-name="Ohungarumlaut" unicode="&#x150;" horiz-adv-x="946" 
d="M236 912l207 80v-122l-207 -80v122zM503 912l207 80v-122l-207 -80v122zM473 -10q-227 0 -333.5 91t-106.5 270q0 178 106.5 268.5t333.5 90.5q440 0 440 -359q0 -361 -440 -361zM473 141q138 0 199 50.5t61 159.5q0 108 -60.5 158t-199.5 50t-199.5 -49.5t-60.5 -158.5
t60.5 -159.5t199.5 -50.5z" />
    <glyph glyph-name="ohungarumlaut" unicode="&#x151;" horiz-adv-x="882" 
d="M204 801l207 80v-122l-207 -80v122zM471 801l207 80v-122l-207 -80v122zM441 -10q-192 0 -300 74t-108 230q0 157 108 231t300 74q191 0 299.5 -74.5t108.5 -230.5t-108.5 -230t-299.5 -74zM441 133q123 0 179.5 36t56.5 125q0 90 -56.5 126t-179.5 36t-180 -36t-57 -126
q0 -89 57 -125t180 -36z" />
    <glyph glyph-name="OE" unicode="&#x152;" horiz-adv-x="1555" 
d="M1522 557h-560v-142h560v-130h-560v-142h560v-143h-740v64q-107 -74 -309 -74q-227 0 -333.5 91t-106.5 270q0 178 106.5 268.5t333.5 90.5q201 0 309 -73v63h740v-143zM473 141q138 0 199 50.5t61 159.5q0 108 -60.5 158t-199.5 50t-199.5 -49.5t-60.5 -158.5
t60.5 -159.5t199.5 -50.5z" />
    <glyph glyph-name="oe" unicode="&#x153;" horiz-adv-x="1543" 
d="M1097 129q90 0 145.5 19t87.5 63h170q-29 -111 -132.5 -166t-270.5 -55q-218 0 -322 103q-103 -103 -334 -103q-192 0 -300 74t-108 230q0 157 108 231t300 74q232 0 334 -103q102 103 332 103q403 0 403 -345h-636q25 -125 223 -125zM1106 469q-95 0 -151 -23.5
t-75 -82.5h447q-37 106 -221 106zM441 133q123 0 179.5 36t56.5 125q0 90 -56.5 126t-179.5 36t-180 -36t-57 -126q0 -89 57 -125t180 -36z" />
    <glyph glyph-name="Racute" unicode="&#x154;" horiz-adv-x="894" 
d="M623 980v-118l-389 -80v118zM861 443q0 -84 -40.5 -145.5t-111.5 -89.5l129 -208h-212l-113 187h-290v-187h-180v700h550q120 0 194 -70.5t74 -186.5zM223 549v-211h320q23 0 36 0.5t35 6t34.5 16t22.5 31.5t10 51t-10 51.5t-22.5 32t-34.5 16t-35 6t-36 0.5h-320z" />
    <glyph glyph-name="racute" unicode="&#x155;" horiz-adv-x="708" 
d="M553 869v-118l-389 -80v118zM516 599q79 0 159 -20v-143q-80 20 -151 20q-178 0 -310 -103v-353h-171v589h171v-100q123 110 302 110z" />
    <glyph glyph-name="Rcommaaccent" unicode="&#x156;" horiz-adv-x="894" 
d="M861 443q0 -84 -40.5 -145.5t-111.5 -89.5l129 -208h-212l-113 187h-290v-187h-180v700h550q120 0 194 -70.5t74 -186.5zM223 549v-211h320q23 0 36 0.5t35 6t34.5 16t22.5 31.5t10 51t-10 51.5t-22.5 32t-34.5 16t-35 6t-36 0.5h-320zM352 -225v108h154v-108l-80 -110
h-74l56 110h-56z" />
    <glyph glyph-name="rcommaaccent" unicode="&#x157;" horiz-adv-x="708" 
d="M516 599q79 0 159 -20v-143q-80 20 -151 20q-178 0 -310 -103v-353h-171v589h171v-100q123 110 302 110zM52 -225v108h154v-108l-80 -110h-74l56 110h-56z" />
    <glyph glyph-name="Rcaron" unicode="&#x158;" horiz-adv-x="894" 
d="M636 864l-207 -80l-207 80v118l207 -80l207 80v-118zM861 443q0 -84 -40.5 -145.5t-111.5 -89.5l129 -208h-212l-113 187h-290v-187h-180v700h550q120 0 194 -70.5t74 -186.5zM223 549v-211h320q23 0 36 0.5t35 6t34.5 16t22.5 31.5t10 51t-10 51.5t-22.5 32t-34.5 16
t-35 6t-36 0.5h-320z" />
    <glyph glyph-name="rcaron" unicode="&#x159;" horiz-adv-x="708" 
d="M566 753l-207 -80l-207 80v118l207 -80l207 80v-118zM516 599q79 0 159 -20v-143q-80 20 -151 20q-178 0 -310 -103v-353h-171v589h171v-100q123 110 302 110z" />
    <glyph glyph-name="Sacute" unicode="&#x15a;" horiz-adv-x="960" 
d="M285 900l389 80v-118l-389 -80v118zM33 241h180q0 -58 61.5 -83t226.5 -25q140 0 193 17t53 59q0 23 -9 35.5t-40.5 21.5t-79 13.5t-138.5 8.5q-235 11 -330.5 57.5t-95.5 161.5q0 75 51.5 121t141 64t226.5 18q206 0 315 -57t109 -182h-180q0 56 -59.5 76t-204.5 20
q-130 0 -174.5 -14.5t-44.5 -54.5t45 -53.5t201 -22.5q62 -3 99.5 -6t86.5 -8t77.5 -11.5t62.5 -17t53 -25t36.5 -34.5t24.5 -46t7 -59q0 -68 -30.5 -113.5t-92 -69.5t-135 -33t-178.5 -9q-90 0 -158 6.5t-126.5 23.5t-95.5 45t-57.5 72t-20.5 104z" />
    <glyph glyph-name="sacute" unicode="&#x15b;" horiz-adv-x="880" 
d="M245 789l389 80v-118l-389 -80v118zM33 207h171q0 -48 57 -67.5t199 -19.5q94 0 139 5.5t60.5 17t15.5 35.5q0 33 -37 42t-198 19q-73 4 -119.5 8.5t-95 12.5t-76.5 20t-51.5 30.5t-33.5 44.5t-10 61q0 45 21 78t55 53t86.5 32t106 16t121.5 4q91 0 154.5 -7.5t118.5 -27
t82.5 -58.5t27.5 -98h-172q0 36 -49 48.5t-172 12.5q-120 0 -164 -10t-44 -36q0 -15 7 -23t35 -14.5t68.5 -10.5t123.5 -10q191 -14 250 -29q109 -27 131 -102q6 -22 6 -49q0 -49 -18 -84t-48.5 -56.5t-80.5 -33.5t-103 -16.5t-127 -4.5q-75 0 -133 4.5t-118 18t-98.5 36.5
t-63 63t-24.5 95z" />
    <glyph glyph-name="Scedilla" unicode="&#x15e;" horiz-adv-x="960" 
d="M927 215q0 -64 -27 -108t-81 -68.5t-121 -35.5t-161 -13l-12 -37q25 8 53.5 10.5t57.5 -1.5t47.5 -24t18.5 -54q0 -41 -27.5 -68.5t-72.5 -38.5t-101.5 -13.5t-114.5 6.5v85q187 -27 187 38q0 38 -104 14l-59 58l10 26q-195 6 -291 62t-96 188h180q0 -58 61.5 -83
t226.5 -25q140 0 193 17t53 59q0 23 -9 35.5t-40.5 21.5t-79 13.5t-138.5 8.5q-235 11 -330.5 57.5t-95.5 161.5q0 75 51.5 121t141 64t226.5 18q206 0 315 -57t109 -182h-180q0 56 -59.5 76t-204.5 20q-130 0 -174.5 -14.5t-44.5 -54.5t45 -53.5t201 -22.5q62 -3 99.5 -6
t86.5 -8t77.5 -11.5t62.5 -17t53 -25t36.5 -34.5t24.5 -46t7 -59z" />
    <glyph glyph-name="scedilla" unicode="&#x15f;" horiz-adv-x="880" 
d="M847 185q0 -58 -24 -97t-73 -59.5t-108 -29t-145 -9.5l-12 -37q25 8 53.5 10.5t57.5 -1.5t47.5 -24t18.5 -54q0 -41 -27.5 -68.5t-72.5 -38.5t-101.5 -13.5t-114.5 6.5v85q187 -27 187 38q0 38 -104 14l-59 58l11 27q-77 4 -135.5 15t-109 34.5t-77 65t-26.5 100.5h171
q0 -48 57 -67.5t199 -19.5q94 0 139 5.5t60.5 17t15.5 35.5q0 33 -37 42t-198 19q-73 4 -119.5 8.5t-95 12.5t-76.5 20t-51.5 30.5t-33.5 44.5t-10 61q0 45 21 78t55 53t86.5 32t106 16t121.5 4q91 0 154.5 -7.5t118.5 -27t82.5 -58.5t27.5 -98h-172q0 36 -49 48.5
t-172 12.5q-120 0 -164 -10t-44 -36q0 -15 7 -23t35 -14.5t68.5 -10.5t123.5 -10q191 -14 250 -29q109 -27 131 -102q6 -22 6 -49z" />
    <glyph glyph-name="Scaron" unicode="&#x160;" horiz-adv-x="960" 
d="M687 864l-207 -80l-207 80v118l207 -80l207 80v-118zM480 422q62 -3 99.5 -6t86.5 -8t77.5 -11.5t62.5 -17t53 -25t36.5 -34.5t24.5 -46t7 -59q0 -68 -30.5 -113.5t-92 -69.5t-135 -33t-178.5 -9q-90 0 -158 6.5t-126.5 23.5t-95.5 45t-57.5 72t-20.5 104h180
q0 -58 61.5 -83t226.5 -25q140 0 193 17t53 59q0 23 -9 35.5t-40.5 21.5t-79 13.5t-138.5 8.5q-235 11 -330.5 57.5t-95.5 161.5q0 75 51.5 121t141 64t226.5 18q206 0 315 -57t109 -182h-180q0 56 -59.5 76t-204.5 20q-130 0 -174.5 -14.5t-44.5 -54.5t45 -53.5t201 -22.5z
" />
    <glyph glyph-name="scaron" unicode="&#x161;" horiz-adv-x="880" 
d="M647 753l-207 -80l-207 80v118l207 -80l207 80v-118zM460 365q191 -14 250 -29q109 -27 131 -102q6 -22 6 -49q0 -49 -18 -84t-48.5 -56.5t-80.5 -33.5t-103 -16.5t-127 -4.5q-75 0 -133 4.5t-118 18t-98.5 36.5t-63 63t-24.5 95h171q0 -48 57 -67.5t199 -19.5
q94 0 139 5.5t60.5 17t15.5 35.5q0 33 -37 42t-198 19q-73 4 -119.5 8.5t-95 12.5t-76.5 20t-51.5 30.5t-33.5 44.5t-10 61q0 45 21 78t55 53t86.5 32t106 16t121.5 4q91 0 154.5 -7.5t118.5 -27t82.5 -58.5t27.5 -98h-172q0 36 -49 48.5t-172 12.5q-120 0 -164 -10t-44 -36
q0 -15 7 -23t35 -14.5t68.5 -10.5t123.5 -10z" />
    <glyph glyph-name="uni0162" unicode="&#x162;" horiz-adv-x="926" 
d="M553 0h-30l-15 -47q25 8 53.5 10.5t57.5 -1.5t47.5 -24t18.5 -54q0 -41 -27.5 -68.5t-72.5 -38.5t-101.5 -13.5t-114.5 6.5v85q187 -27 187 38q0 38 -104 14l-59 58l14 35h-34v549h-340v151h860v-151h-340v-549z" />
    <glyph glyph-name="uni0163" unicode="&#x163;" horiz-adv-x="672" 
d="M639 446h-279v-170q0 -86 24.5 -114.5t101.5 -28.5q84 0 153 10v-138q-72 -12 -166 -15l-12 -37q25 8 53.5 10.5t57.5 -1.5t47.5 -24t18.5 -54q0 -41 -27.5 -68.5t-72.5 -38.5t-101.5 -13.5t-114.5 6.5v85q187 -27 187 38q0 38 -104 14l-59 58l12 31q-170 29 -170 181
v269h-155v143h155v122l172 49v-171h279v-143z" />
    <glyph glyph-name="Tcaron" unicode="&#x164;" horiz-adv-x="926" 
d="M670 864l-207 -80l-207 80v118l207 -80l207 80v-118zM893 700v-151h-340v-549h-180v549h-340v151h860z" />
    <glyph glyph-name="tcaron" unicode="&#x165;" horiz-adv-x="672" 
d="M481 904l-207 -80l-207 80v118l207 -80l207 80v-118zM639 446h-279v-170q0 -86 24.5 -114.5t101.5 -28.5q84 0 153 10v-138q-85 -15 -201 -15q-118 0 -184 46t-66 141v269h-155v143h155v122l172 49v-171h279v-143z" />
    <glyph glyph-name="Tbar" unicode="&#x166;" horiz-adv-x="926" 
d="M893 549h-340v-200h141v-118h-141v-231h-180v231h-159v118h159v200h-340v151h860v-151z" />
    <glyph glyph-name="tbar" unicode="&#x167;" horiz-adv-x="672" 
d="M639 446h-279v-87h207v-118h-206q4 -63 30 -85.5t95 -22.5q84 0 153 10v-138q-85 -15 -201 -15q-118 0 -184 46t-66 141v64h-101v118h101v87h-155v143h155v122l172 49v-171h279v-143z" />
    <glyph glyph-name="Umacron" unicode="&#x16a;" horiz-adv-x="966" 
d="M248 910h469v-118h-469v118zM923 351q0 -184 -106 -272.5t-334 -88.5q-229 0 -334.5 88t-105.5 273v349h180v-349q0 -34 4.5 -60t20 -55.5t43 -49t76.5 -32.5t116 -13t116 13t76 32.5t43 49t20.5 55.5t4.5 60v349h180v-349z" />
    <glyph glyph-name="umacron" unicode="&#x16b;" horiz-adv-x="905" 
d="M686 799v-118h-469v118h469zM691 589h171v-589h-171v103q-144 -113 -343 -113q-303 0 -306 273l2 326h172v-261q0 -98 40.5 -144t142.5 -46q83 0 166.5 36t125.5 85v330z" />
    <glyph glyph-name="Uring" unicode="&#x16e;" horiz-adv-x="966" 
d="M483 771q-113 0 -161.5 33.5t-48.5 98.5t48.5 98.5t161.5 33.5t161.5 -33.5t48.5 -98.5t-48.5 -98.5t-161.5 -33.5zM483 850q51 0 76 12t25 41t-25 41t-76 12q-102 0 -102 -53t102 -53zM923 351q0 -184 -106 -272.5t-334 -88.5q-229 0 -334.5 88t-105.5 273v349h180v-349
q0 -34 4.5 -60t20 -55.5t43 -49t76.5 -32.5t116 -13t116 13t76 32.5t43 49t20.5 55.5t4.5 60v349h180v-349z" />
    <glyph glyph-name="uring" unicode="&#x16f;" horiz-adv-x="905" 
d="M452 660q-113 0 -161.5 33.5t-48.5 98.5t48.5 98.5t161.5 33.5t161.5 -33.5t48.5 -98.5t-48.5 -98.5t-161.5 -33.5zM452 845q-102 0 -102 -53t102 -53q51 0 76 12t25 41t-25 41t-76 12zM691 589h171v-589h-171v103q-144 -113 -343 -113q-303 0 -306 273l2 326h172v-261
q0 -98 40.5 -144t142.5 -46q83 0 166.5 36t125.5 85v330z" />
    <glyph glyph-name="Uhungarumlaut" unicode="&#x170;" horiz-adv-x="966" 
d="M246 912l207 80v-122l-207 -80v122zM513 912l207 80v-122l-207 -80v122zM923 351q0 -184 -106 -272.5t-334 -88.5q-229 0 -334.5 88t-105.5 273v349h180v-349q0 -34 4.5 -60t20 -55.5t43 -49t76.5 -32.5t116 -13t116 13t76 32.5t43 49t20.5 55.5t4.5 60v349h180v-349z
" />
    <glyph glyph-name="uhungarumlaut" unicode="&#x171;" horiz-adv-x="905" 
d="M422 881v-122l-207 -80v122zM689 881v-122l-207 -80v122zM691 589h171v-589h-171v103q-144 -113 -343 -113q-303 0 -306 273l2 326h172v-261q0 -98 40.5 -144t142.5 -46q83 0 166.5 36t125.5 85v330z" />
    <glyph glyph-name="Uogonek" unicode="&#x172;" horiz-adv-x="966" 
d="M743 700h180v-349q0 -156 -75.5 -243t-235.5 -110q-45 -34 -45 -61q0 -33 39.5 -41.5t120.5 -8.5v-117q-152 0 -220 24t-68 93q0 56 66 103h-22q-229 0 -334.5 88t-105.5 273v349h180v-349q0 -34 4.5 -60t20 -55.5t43 -49t76.5 -32.5t116 -13t116 13t76 32.5t43 49
t20.5 55.5t4.5 60v349z" />
    <glyph glyph-name="uogonek" unicode="&#x173;" horiz-adv-x="905" 
d="M757 -63q0 -33 39.5 -41.5t120.5 -8.5v-117q-152 0 -220 24t-68 93q0 61 80 113h-18v103q-144 -113 -343 -113q-303 0 -306 273l2 326h172v-261q0 -98 40.5 -144t142.5 -46q83 0 166.5 36t125.5 85v330h171v-589h-58q-47 -38 -47 -63z" />
    <glyph glyph-name="Wcircumflex" unicode="&#x174;" horiz-adv-x="1528" 
d="M971 782l-207 80l-207 -80v118l207 80l207 -80v-118zM1300 700h195l-276 -700h-249l-206 527l-207 -527h-248l-276 700h194l207 -550l219 550h221l220 -551z" />
    <glyph glyph-name="wcircumflex" unicode="&#x175;" horiz-adv-x="1398" 
d="M906 671l-207 80l-207 -80v118l207 80l207 -80v-118zM1174 589h191l-265 -589h-228l-173 410l-173 -410h-228l-265 589h191l193 -455l180 455h204l180 -454z" />
    <glyph glyph-name="Ycircumflex" unicode="&#x176;" horiz-adv-x="1038" 
d="M726 782l-207 80l-207 -80v118l207 80l207 -80v-118zM788 700h217l-396 -470v-230h-180v230l-396 470h217l269 -319z" />
    <glyph glyph-name="ycircumflex" unicode="&#x177;" horiz-adv-x="927" 
d="M671 671l-207 80l-207 -80v118l207 80l207 -80v-118zM705 589h189l-398 -839h-189l119 250h-88l-305 589h190l252 -486z" />
    <glyph glyph-name="Ydieresis" unicode="&#x178;" horiz-adv-x="1038" 
d="M301 944h177v-146h-177v146zM561 944h177v-146h-177v146zM429 230l-396 470h217l269 -319l269 319h217l-396 -470v-230h-180v230z" />
    <glyph glyph-name="Zacute" unicode="&#x179;" horiz-adv-x="876" 
d="M632 980v-118l-389 -80v118zM833 700v-151l-532 -398h532v-151h-790v151l531 398h-531v151h790z" />
    <glyph glyph-name="zacute" unicode="&#x17a;" horiz-adv-x="780" 
d="M584 869v-118l-389 -80v118zM737 589v-143l-441 -303h441v-143h-694v143l441 303h-441v143h694z" />
    <glyph glyph-name="Zdotaccent" unicode="&#x17b;" horiz-adv-x="876" 
d="M535 944v-146h-194v146h194zM833 700v-151l-532 -398h532v-151h-790v151l531 398h-531v151h790z" />
    <glyph glyph-name="zdotaccent" unicode="&#x17c;" horiz-adv-x="780" 
d="M487 833v-146h-194v146h194zM737 589v-143l-441 -303h441v-143h-694v143l441 303h-441v143h694z" />
    <glyph glyph-name="Zcaron" unicode="&#x17d;" horiz-adv-x="876" 
d="M645 864l-207 -80l-207 80v118l207 -80l207 80v-118zM833 700v-151l-532 -398h532v-151h-790v151l531 398h-531v151h790z" />
    <glyph glyph-name="zcaron" unicode="&#x17e;" horiz-adv-x="780" 
d="M597 753l-207 -80l-207 80v118l207 -80l207 80v-118zM737 589v-143l-441 -303h441v-143h-694v143l441 303h-441v143h694z" />
    <glyph glyph-name="Scommaaccent" unicode="&#x218;" horiz-adv-x="960" 
d="M33 241h180q0 -58 61.5 -83t226.5 -25q140 0 193 17t53 59q0 23 -9 35.5t-40.5 21.5t-79 13.5t-138.5 8.5q-235 11 -330.5 57.5t-95.5 161.5q0 75 51.5 121t141 64t226.5 18q206 0 315 -57t109 -182h-180q0 56 -59.5 76t-204.5 20q-130 0 -174.5 -14.5t-44.5 -54.5
t45 -53.5t201 -22.5q62 -3 99.5 -6t86.5 -8t77.5 -11.5t62.5 -17t53 -25t36.5 -34.5t24.5 -46t7 -59q0 -68 -30.5 -113.5t-92 -69.5t-135 -33t-178.5 -9q-90 0 -158 6.5t-126.5 23.5t-95.5 45t-57.5 72t-20.5 104zM403 -117h154v-108l-80 -110h-74l56 110h-56v108z" />
    <glyph glyph-name="scommaaccent" unicode="&#x219;" horiz-adv-x="880" 
d="M33 207h171q0 -48 57 -67.5t199 -19.5q94 0 139 5.5t60.5 17t15.5 35.5q0 33 -37 42t-198 19q-73 4 -119.5 8.5t-95 12.5t-76.5 20t-51.5 30.5t-33.5 44.5t-10 61q0 45 21 78t55 53t86.5 32t106 16t121.5 4q91 0 154.5 -7.5t118.5 -27t82.5 -58.5t27.5 -98h-172
q0 36 -49 48.5t-172 12.5q-120 0 -164 -10t-44 -36q0 -15 7 -23t35 -14.5t68.5 -10.5t123.5 -10q191 -14 250 -29q109 -27 131 -102q6 -22 6 -49q0 -49 -18 -84t-48.5 -56.5t-80.5 -33.5t-103 -16.5t-127 -4.5q-75 0 -133 4.5t-118 18t-98.5 36.5t-63 63t-24.5 95zM363 -117
h154v-108l-80 -110h-74l56 110h-56v108z" />
    <glyph glyph-name="uni021A" unicode="&#x21a;" horiz-adv-x="926" 
d="M893 700v-151h-340v-549h-180v549h-340v151h860zM386 -225v108h154v-108l-80 -110h-74l56 110h-56z" />
    <glyph glyph-name="uni021B" unicode="&#x21b;" horiz-adv-x="672" 
d="M639 446h-279v-170q0 -86 24.5 -114.5t101.5 -28.5q84 0 153 10v-138q-85 -15 -201 -15q-118 0 -184 46t-66 141v269h-155v143h155v122l172 49v-171h279v-143zM339 -225v108h154v-108l-80 -110h-74l56 110h-56z" />
    <glyph glyph-name="circumflex" unicode="&#x2c6;" horiz-adv-x="540" 
d="M270 869l207 -80v-118l-207 80l-207 -80v118z" />
    <glyph glyph-name="caron" unicode="&#x2c7;" horiz-adv-x="540" 
d="M270 791l207 80v-118l-207 -80l-207 80v118z" />
    <glyph glyph-name="breve" unicode="&#x2d8;" horiz-adv-x="580" 
d="M63 870h108q0 -111 119 -111q118 0 118 111h109q0 -63 -17.5 -106.5t-50 -66t-71 -32t-88.5 -9.5t-88.5 9.5t-71 32t-50 66t-17.5 106.5z" />
    <glyph glyph-name="dotaccent" unicode="&#x2d9;" horiz-adv-x="320" 
d="M63 833h194v-146h-194v146z" />
    <glyph glyph-name="ring" unicode="&#x2da;" horiz-adv-x="546" 
d="M273 660q-113 0 -161.5 33.5t-48.5 98.5t48.5 98.5t161.5 33.5t161.5 -33.5t48.5 -98.5t-48.5 -98.5t-161.5 -33.5zM273 739q51 0 76 12t25 41t-25 41t-76 12q-102 0 -102 -53t102 -53z" />
    <glyph glyph-name="ogonek" unicode="&#x2db;" horiz-adv-x="414" 
d="M351 -113v-117q-152 0 -220 24t-68 93q0 61 80 113h95q-47 -38 -47 -63q0 -33 39.5 -41.5t120.5 -8.5z" />
    <glyph glyph-name="tilde" unicode="&#x2dc;" horiz-adv-x="706" 
d="M63 670q0 91 38.5 150.5t118.5 59.5q38 0 71 -15.5t52.5 -34t45.5 -34t52 -15.5q31 0 43.5 22t12.5 67h146q0 -91 -39 -150.5t-118 -59.5q-39 0 -72 15.5t-52.5 34t-45.5 34t-52 15.5q-30 0 -42.5 -22t-12.5 -67h-146z" />
    <glyph glyph-name="hungarumlaut" unicode="&#x2dd;" horiz-adv-x="600" 
d="M63 801l207 80v-122l-207 -80v122zM330 801l207 80v-122l-207 -80v122z" />
    <glyph glyph-name="gravecomb" unicode="&#x300;" 
d="M-63 789v-118l-389 80v118z" />
    <glyph glyph-name="acutecomb" unicode="&#x301;" 
d="M-452 789l389 80v-118l-389 -80v118z" />
    <glyph glyph-name="uni0302" unicode="&#x302;" 
d="M-270 869l207 -80v-118l-207 80l-207 -80v118z" />
    <glyph glyph-name="tildecomb" unicode="&#x303;" 
d="M-643 670q0 91 38.5 150.5t118.5 59.5q38 0 71 -15.5t52.5 -34t45.5 -34t52 -15.5q31 0 43.5 22t12.5 67h146q0 -91 -39 -150.5t-118 -59.5q-39 0 -72 15.5t-52.5 34t-45.5 34t-52 15.5q-30 0 -42.5 -22t-12.5 -67h-146z" />
    <glyph glyph-name="uni0304" unicode="&#x304;" 
d="M-532 799h469v-118h-469v118z" />
    <glyph glyph-name="uni0306" unicode="&#x306;" 
d="M-517 870h108q0 -111 119 -111q118 0 118 111h109q0 -63 -17.5 -106.5t-50 -66t-71 -32t-88.5 -9.5t-88.5 9.5t-71 32t-50 66t-17.5 106.5z" />
    <glyph glyph-name="uni0307" unicode="&#x307;" 
d="M-257 833h194v-146h-194v146z" />
    <glyph glyph-name="uni0308" unicode="&#x308;" 
d="M-500 833h177v-146h-177v146zM-240 833h177v-146h-177v146z" />
    <glyph glyph-name="uni030A" unicode="&#x30a;" 
d="M-273 660q-113 0 -161.5 33.5t-48.5 98.5t48.5 98.5t161.5 33.5t161.5 -33.5t48.5 -98.5t-48.5 -98.5t-161.5 -33.5zM-273 739q51 0 76 12t25 41t-25 41t-76 12q-102 0 -102 -53t102 -53z" />
    <glyph glyph-name="uni030B" unicode="&#x30b;" 
d="M-537 801l207 80v-122l-207 -80v122zM-270 801l207 80v-122l-207 -80v122z" />
    <glyph glyph-name="uni030C" unicode="&#x30c;" 
d="M-270 791l207 80v-118l-207 -80l-207 80v118z" />
    <glyph glyph-name="uni0312" unicode="&#x312;" 
d="M-63 706h-154v108l80 110h74l-56 -110h56v-108z" />
    <glyph glyph-name="uni0326" unicode="&#x326;" 
d="M-217 -56h154v-108l-80 -110h-74l56 110h-56v108z" />
    <glyph glyph-name="uni0327" unicode="&#x327;" 
d="M-240 -47q25 8 53.5 10.5t57.5 -1.5t47.5 -24t18.5 -54q0 -41 -27.5 -68.5t-72.5 -38.5t-101.5 -13.5t-114.5 6.5v85q187 -27 187 38q0 38 -104 14l-59 58l14 35h116z" />
    <glyph glyph-name="uni0328" unicode="&#x328;" 
d="M-63 -113v-117q-152 0 -220 24t-68 93q0 61 80 113h95q-47 -38 -47 -63q0 -33 39.5 -41.5t120.5 -8.5z" />
    <glyph glyph-name="uni0335" unicode="&#x335;" 
d="M-543 399h480v-118h-480v118z" />
    <glyph glyph-name="uni0336" unicode="&#x336;" 
d="M-1063 399h1000v-118h-1000v118z" />
    <glyph glyph-name="uni0337" unicode="&#x337;" 
d="M-43 720l-260 -870h-176l260 870h176z" />
    <glyph glyph-name="uni0338" unicode="&#x338;" 
d="M-71 720l-260 -870h-148l260 870h148z" />
    <glyph glyph-name="Wgrave" unicode="&#x1e80;" horiz-adv-x="1528" 
d="M958 900v-118l-389 80v118zM1300 700h195l-276 -700h-249l-206 527l-207 -527h-248l-276 700h194l207 -550l219 550h221l220 -551z" />
    <glyph glyph-name="wgrave" unicode="&#x1e81;" horiz-adv-x="1398" 
d="M893 789v-118l-389 80v118zM1174 589h191l-265 -589h-228l-173 410l-173 -410h-228l-265 589h191l193 -455l180 455h204l180 -454z" />
    <glyph glyph-name="Wacute" unicode="&#x1e82;" horiz-adv-x="1528" 
d="M958 980v-118l-389 -80v118zM1300 700h195l-276 -700h-249l-206 527l-207 -527h-248l-276 700h194l207 -550l219 550h221l220 -551z" />
    <glyph glyph-name="wacute" unicode="&#x1e83;" horiz-adv-x="1398" 
d="M893 869v-118l-389 -80v118zM1174 589h191l-265 -589h-228l-173 410l-173 -410h-228l-265 589h191l193 -455l180 455h204l180 -454z" />
    <glyph glyph-name="Wdieresis" unicode="&#x1e84;" horiz-adv-x="1528" 
d="M723 944v-146h-177v146h177zM983 944v-146h-177v146h177zM1300 700h195l-276 -700h-249l-206 527l-207 -527h-248l-276 700h194l207 -550l219 550h221l220 -551z" />
    <glyph glyph-name="wdieresis" unicode="&#x1e85;" horiz-adv-x="1398" 
d="M658 833v-146h-177v146h177zM918 833v-146h-177v146h177zM1174 589h191l-265 -589h-228l-173 410l-173 -410h-228l-265 589h191l193 -455l180 455h204l180 -454z" />
    <glyph glyph-name="Ygrave" unicode="&#x1ef2;" horiz-adv-x="1038" 
d="M713 900v-118l-389 80v118zM429 230l-396 470h217l269 -319l269 319h217l-396 -470v-230h-180v230z" />
    <glyph glyph-name="ygrave" unicode="&#x1ef3;" horiz-adv-x="927" 
d="M658 789v-118l-389 80v118zM705 589h189l-398 -839h-189l119 250h-88l-305 589h190l252 -486z" />
    <glyph glyph-name="endash" unicode="&#x2013;" horiz-adv-x="1126" 
d="M63 411h1000v-142h-1000v142z" />
    <glyph glyph-name="emdash" unicode="&#x2014;" horiz-adv-x="1326" 
d="M63 411h1200v-142h-1200v142z" />
    <glyph glyph-name="quoteleft" unicode="&#x2018;" horiz-adv-x="309" 
d="M45 400l64 320h147l-40 -320h-171z" />
    <glyph glyph-name="quoteright" unicode="&#x2019;" horiz-adv-x="317" 
d="M264 720l-64 -320h-147l40 320h171z" />
    <glyph glyph-name="quotesinglbase" unicode="&#x201a;" horiz-adv-x="257" 
d="M43 134h171v-134l-81 -197h-82l51 197h-59v134z" />
    <glyph glyph-name="quotedblleft" unicode="&#x201c;" horiz-adv-x="566" 
d="M68 400l64 320h147l-40 -320h-171zM302 400l64 320h147l-40 -320h-171z" />
    <glyph glyph-name="quotedblright" unicode="&#x201d;" horiz-adv-x="543" 
d="M264 720l-64 -320h-147l40 320h171zM498 720l-64 -320h-147l40 320h171z" />
    <glyph glyph-name="quotedblbase" unicode="&#x201e;" horiz-adv-x="491" 
d="M43 0v134h171v-134l-81 -197h-82l51 197h-59zM277 134h171v-134l-81 -197h-82l51 197h-59v134z" />
    <glyph glyph-name="dagger" unicode="&#x2020;" horiz-adv-x="926" 
d="M863 491v-142h-314v-499h-171v499h-315v142h315v229h171v-229h314z" />
    <glyph glyph-name="daggerdbl" unicode="&#x2021;" horiz-adv-x="926" 
d="M863 349h-314v-128h314v-142h-314v-229h-171v229h-315v142h315v128h-315v142h315v229h171v-229h314v-142z" />
    <glyph glyph-name="bullet" unicode="&#x2022;" horiz-adv-x="402" 
d="M201 208q-81 0 -119.5 27.5t-38.5 85.5t38.5 85t119.5 27t119.5 -27t38.5 -85t-38.5 -85.5t-119.5 -27.5z" />
    <glyph glyph-name="ellipsis" unicode="&#x2026;" horiz-adv-x="751" 
d="M43 134h171v-134h-171v134zM290 134h171v-134h-171v134zM537 134h171v-134h-171v134z" />
    <glyph glyph-name="perthousand" unicode="&#x2030;" horiz-adv-x="2372" 
d="M368 259q-154 0 -229.5 76.5t-75.5 199.5q0 122 75.5 198.5t229.5 76.5t230 -76.5t76 -198.5q0 -123 -75.5 -199.5t-230.5 -76.5zM1062 800l-260 -870h-176l260 870h176zM368 402q134 0 134 133q0 132 -134 132t-134 -132q0 -133 134 -133zM1321 -80q-154 0 -229.5 76.5
t-75.5 199.5q0 122 75.5 198.5t229.5 76.5t230 -76.5t76 -198.5q0 -123 -75.5 -199.5t-230.5 -76.5zM2003 -80q-154 0 -229.5 76.5t-75.5 199.5q0 122 75.5 198.5t229.5 76.5q155 0 230.5 -76t75.5 -199t-75.5 -199.5t-230.5 -76.5zM1321 63q134 0 134 133q0 132 -134 132
t-134 -132q0 -133 134 -133zM2003 63q135 0 135 133q0 132 -135 132q-133 0 -133 -132q0 -133 133 -133z" />
    <glyph glyph-name="guilsinglleft" unicode="&#x2039;" horiz-adv-x="579" 
d="M303 589h233l-260 -295l260 -294h-233l-260 294z" />
    <glyph glyph-name="guilsinglright" unicode="&#x203a;" horiz-adv-x="579" 
d="M276 589l260 -295l-260 -294h-233l260 294l-260 295h233z" />
    <glyph glyph-name="fraction" unicode="&#x2044;" horiz-adv-x="521" 
d="M478 720l-260 -870h-176l260 870h176z" />
    <glyph glyph-name="Euro" unicode="&#x20ac;" horiz-adv-x="866" 
d="M546 659q-101 0 -149.5 -38t-63.5 -126h354v-108h-364v-36v-36h364v-108h-355q16 -89 64.5 -127.5t149.5 -38.5q92 0 257 30v-151q-165 -30 -284 -30q-170 0 -257 76.5t-110 240.5h-89v108h80v36v36h-80v108h89q24 160 111.5 237.5t255.5 77.5q119 0 284 -30v-151
q-165 30 -257 30z" />
    <glyph glyph-name="trademark" unicode="&#x2122;" horiz-adv-x="1084" 
d="M479 799v-73h-165v-265h-87v265h-164v73h416zM1021 799v-338h-87v232l-141 -232h-63l-140 232v-232h-87v338h117l142 -239l142 239h117z" />
    <glyph glyph-name="arrowleft" unicode="&#x2190;" horiz-adv-x="1131" 
d="M565 -110q-120 0 -216.5 35.5t-158.5 98t-94.5 146t-32.5 181.5q0 202 131.5 330.5t370.5 128.5q238 0 370.5 -128.5t132.5 -330.5t-132.5 -331.5t-370.5 -129.5zM890 284v132h-410l130 126l-96 95l-284 -286l284 -288l96 95l-130 126h410z" />
    <glyph glyph-name="arrowup" unicode="&#x2191;" horiz-adv-x="1131" 
d="M566 -110q-238 0 -370.5 129.5t-132.5 331.5t132.5 330.5t370.5 128.5q239 0 370.5 -128.5t131.5 -330.5q0 -98 -32.5 -181.5t-94.5 -146t-158.5 -98t-216.5 -35.5zM632 30v410l125 -130l96 96l-288 284l-286 -284l95 -96l125 130v-410h133z" />
    <glyph glyph-name="arrowright" unicode="&#x2192;" horiz-adv-x="1131" 
d="M566 -110q-238 0 -370.5 129.5t-132.5 331.5t132.5 330.5t370.5 128.5q239 0 370.5 -128.5t131.5 -330.5q0 -98 -32.5 -181.5t-94.5 -146t-158.5 -98t-216.5 -35.5zM241 284h410l-130 -126l96 -95l284 288l-284 286l-96 -95l130 -126h-410v-132z" />
    <glyph glyph-name="arrowdown" unicode="&#x2193;" horiz-adv-x="1131" 
d="M566 810q120 0 216.5 -35.5t158.5 -98t94.5 -146t32.5 -181.5q0 -202 -131.5 -330.5t-370.5 -128.5q-238 0 -370.5 128.5t-132.5 330.5t132.5 331.5t370.5 129.5zM632 670h-133v-410l-125 130l-95 -96l286 -284l288 284l-96 96l-125 -130v410z" />
    <glyph glyph-name="arrowboth" unicode="&#x2194;" horiz-adv-x="1131" 
d="M566 -110q-238 0 -370.5 129.5t-132.5 331.5t132.5 330.5t370.5 128.5q239 0 370.5 -128.5t131.5 -330.5q0 -98 -32.5 -181.5t-94.5 -146t-158.5 -98t-216.5 -35.5zM952 349l-214 288l-99 -95l104 -131h-352l104 131l-99 95l-216 -289l216 -285l99 95l-104 131h352
l-104 -131l99 -95z" />
    <glyph glyph-name="arrowupdn" unicode="&#x2195;" horiz-adv-x="1131" 
d="M566 -110q-238 0 -370.5 129.5t-132.5 331.5t132.5 330.5t370.5 128.5q239 0 370.5 -128.5t131.5 -330.5q0 -98 -32.5 -181.5t-94.5 -146t-158.5 -98t-216.5 -35.5zM567 715l-288 -214l95 -100l131 104v-308l-131 104l-95 -100l288 -216l286 216l-96 100l-130 -104v308
l130 -104l96 100z" />
    <glyph glyph-name="uni2196" unicode="&#x2196;" horiz-adv-x="1131" 
d="M565 -110q-120 0 -216.5 35.5t-158.5 98t-94.5 146t-32.5 181.5q0 202 131.5 330.5t370.5 128.5q238 0 370.5 -128.5t132.5 -330.5t-132.5 -331.5t-370.5 -129.5zM734 89l94 93l-290 290l186 -3l-7 135l-403 -2l-2 -404l136 -6l-4 186z" />
    <glyph glyph-name="uni2197" unicode="&#x2197;" horiz-adv-x="1131" 
d="M566 -110q-238 0 -370.5 129.5t-132.5 331.5t132.5 330.5t370.5 128.5q239 0 370.5 -128.5t131.5 -330.5q0 -98 -32.5 -181.5t-94.5 -146t-158.5 -98t-216.5 -35.5zM397 89l290 289l-4 -186l136 6l-2 404l-403 2l-7 -135l186 3l-290 -290z" />
    <glyph glyph-name="uni2198" unicode="&#x2198;" horiz-adv-x="1131" 
d="M566 810q120 0 216.5 -35.5t158.5 -98t94.5 -146t32.5 -181.5q0 -202 -131.5 -330.5t-370.5 -128.5q-238 0 -370.5 128.5t-132.5 330.5t132.5 331.5t370.5 129.5zM397 611l-94 -93l290 -290l-186 3l7 -135l403 2l2 404l-136 6l4 -186z" />
    <glyph glyph-name="uni2199" unicode="&#x2199;" horiz-adv-x="1131" 
d="M565 810q238 0 370.5 -129.5t132.5 -331.5t-132.5 -330.5t-370.5 -128.5q-239 0 -370.5 128.5t-131.5 330.5q0 98 32.5 181.5t94.5 146t158.5 98t216.5 35.5zM734 611l-290 -289l4 186l-136 -6l2 -404l403 -2l7 135l-186 -3l290 290z" />
    <glyph glyph-name="partialdiff" unicode="&#x2202;" horiz-adv-x="989" 
d="M283 800q130 -8 245.5 -49t204.5 -110t141 -171t52 -224q0 -104 -39.5 -183t-107 -124t-149 -67t-175.5 -22q-392 0 -392 288q0 134 82 208t256 74q202 0 352 -145q-6 89 -48.5 159t-111.5 114.5t-153 70t-181 32.5zM443 -7q208 0 279 122q-62 80 -145.5 121t-161.5 41
q-87 0 -134 -31.5t-47 -107.5q0 -75 51 -110t158 -35z" />
    <glyph glyph-name="emptyset" unicode="&#x2205;" horiz-adv-x="1154" 
d="M1089 757l-109 -109q100 -120 100 -297q0 -98 -32.5 -181.5t-94.5 -146t-158.5 -98t-216.5 -35.5q-166 0 -288 68l-120 -120l-105 105l111 111q-101 119 -101 297q0 202 132.5 330.5t370.5 128.5q169 0 287 -67l119 119zM246 351q0 -109 45 -182l463 463q-73 35 -176 35
q-159 0 -245.5 -82.5t-86.5 -233.5zM908 351q0 108 -44 181l-463 -463q73 -36 177 -36q159 0 244.5 83t85.5 235z" />
    <glyph glyph-name="product" unicode="&#x220f;" horiz-adv-x="1309" 
d="M1246 720v-160h-234v-710h-171v710h-373v-710h-171v710h-234v160h1183z" />
    <glyph glyph-name="summation" unicode="&#x2211;" horiz-adv-x="866" 
d="M803 800v-143h-514l354 -332l-354 -332h514v-143h-740v143l354 332l-354 332v143h740z" />
    <glyph glyph-name="minus" unicode="&#x2212;" horiz-adv-x="926" 
d="M63 411h800v-142h-800v142z" />
    <glyph glyph-name="radical" unicode="&#x221a;" horiz-adv-x="1356" 
d="M1293 800v-143h-298l-270 -807h-240l-166 358h-256v143h369l169 -351l265 800h427z" />
    <glyph glyph-name="infinity" unicode="&#x221e;" horiz-adv-x="1309" 
d="M63 299q0 129 77.5 206t211.5 77q94 0 164 -42t139 -132q69 90 138.5 132t163.5 42q134 0 211.5 -77t77.5 -206q0 -133 -74 -206t-215 -73q-94 0 -164 41.5t-139 130.5q-69 -90 -138.5 -131t-163.5 -41q-141 0 -215 73t-74 206zM234 299q0 -74 31.5 -105t103.5 -31
q109 0 196 137q-89 139 -196 139q-135 0 -135 -140zM744 299q49 -77 96.5 -106.5t99.5 -29.5q72 0 103 31t31 105q0 140 -134 140q-108 0 -196 -140z" />
    <glyph glyph-name="integral" unicode="&#x222b;" horiz-adv-x="999" 
d="M63 -150v143q113 0 162 14q130 36 160 191l53 254q15 72 40.5 128.5t52.5 93t70 61.5t75 37.5t85.5 19t83.5 7.5t88 1h3v-143q-112 0 -161 -13q-131 -37 -162 -192l-52 -254q-15 -72 -40.5 -128.5t-52.5 -93t-70 -61.5t-75 -37.5t-85.5 -19t-83.5 -7.5t-88 -1h-3z" />
    <glyph glyph-name="approxequal" unicode="&#x2248;" horiz-adv-x="926" 
d="M63 380q0 159 50 239.5t170 80.5q49 0 89.5 -17.5t67.5 -42t51 -49.5t54 -42.5t64 -17.5q49 0 70 36.5t21 132.5h163q0 -159 -50 -239.5t-170 -80.5q-49 0 -89.5 17.5t-67.5 42t-51 49.5t-54 42.5t-64 17.5q-49 0 -70 -36.5t-21 -132.5h-163zM63 0q0 159 50 239.5
t170 80.5q49 0 89.5 -17.5t67.5 -42t51 -49.5t54 -42.5t64 -17.5q49 0 70 36.5t21 132.5h163q0 -159 -50 -239.5t-170 -80.5q-49 0 -89.5 17.5t-67.5 42.5t-51 49.5t-54 42t-64 17.5q-49 0 -70 -36.5t-21 -132.5h-163z" />
    <glyph glyph-name="notequal" unicode="&#x2260;" horiz-adv-x="926" 
d="M863 429h-286l-54 -178h340v-142h-382l-61 -204h-176l61 204h-242v142h284l54 178h-338v142h380l61 204h176l-61 -204h244v-142z" />
    <glyph glyph-name="lessequal" unicode="&#x2264;" horiz-adv-x="836" 
d="M773 700v-149l-579 -104l579 -104v-149l-710 145v217zM63 0v143h710v-143h-710z" />
    <glyph glyph-name="greaterequal" unicode="&#x2265;" horiz-adv-x="836" 
d="M63 700l710 -144v-217l-710 -145v149l579 104l-579 104v149zM63 0v143h710v-143h-710z" />
    <glyph glyph-name="lozenge" unicode="&#x25ca;" horiz-adv-x="927" 
d="M578 800l286 -450l-286 -450h-228l-287 450l287 450h228zM464 -6l225 356l-225 356l-227 -356z" />
    <glyph glyph-name="i.loclTRK" horiz-adv-x="257" 
d="M32 833h194v-146h-194v146zM43 589h171v-589h-171v589z" />
    <glyph glyph-name="a.001" horiz-adv-x="853" 
d="M808 123q0 -31 1 -48t9.5 -40t24.5 -35h-179q-50 0 -73 15.5t-23 57.5q-114 -83 -301 -83q-112 0 -184.5 43.5t-72.5 135.5q0 56 30 96t83 61t112 30.5t130 9.5q118 0 203 -31q0 26 -12 42t-37.5 22.5t-47.5 8.5t-59 2q-133 0 -275 -31l-78 170q188 61 361 61
q192 0 289.5 -73.5t98.5 -239.5v-174zM568 196v25q-57 15 -159 15q-86 0 -122.5 -10t-36.5 -38q0 -23 20 -30.5t69 -7.5q123 0 229 46z" />
    <glyph glyph-name="b.001" horiz-adv-x="846" 
d="M528 610q308 0 308 -310t-308 -310q-176 0 -268 105v-95h-240v800h241v-295q91 105 267 105zM428 190q86 0 127 23.5t41 86.5t-41 86.5t-127 23.5q-82 0 -123 -21t-45 -77v-23q4 -56 45 -77.5t123 -21.5z" />
    <glyph glyph-name="e.001" horiz-adv-x="854" 
d="M428 180q99 0 161 45l235 -40q-38 -91 -141 -143t-255 -52q-193 0 -300.5 75t-107.5 235t107.5 235t300.5 75q192 0 299 -86.5t107 -263.5h-569q23 -80 163 -80zM428 440q-62 0 -99 -12.5t-54 -47.5h305q-17 35 -53.5 47.5t-98.5 12.5z" />
    <glyph glyph-name="m.001" horiz-adv-x="1316" 
d="M1068 610q228 0 228 -219v-391h-240v283q0 66 -26.5 91.5t-81.5 25.5q-72 0 -170 -66v-334h-240v283q0 66 -26.5 91.5t-81.5 25.5q-72 0 -170 -66v-334h-240v600h240v-90q91 55 154 77.5t146 22.5q144 0 194 -101q94 56 159 78.5t155 22.5z" />
    <glyph glyph-name="n.001" horiz-adv-x="858" 
d="M590 610q248 0 248 -219v-391h-240v273q0 68 -27.5 97.5t-87.5 29.5q-95 0 -223 -66v-334h-240v600h240v-80q168 90 330 90z" />
    </font>
</defs>
</svg>
